<?xml version="1.0" standalone="no"?>
<!DOCTYPE svg PUBLIC "-//W3C//DTD SVG 1.1//EN" "http://www.w3.org/Graphics/SVG/1.1/DTD/svg11.dtd" >
<svg xmlns="http://www.w3.org/2000/svg">
<metadata>Generated by IcoMoon</metadata>
<defs>
<font id="icomoon" horiz-adv-x="1024">
<font-face units-per-em="1024" ascent="960" descent="-64" />
<missing-glyph horiz-adv-x="1024" />
<glyph unicode="&#x20;" horiz-adv-x="512" d="" />
<glyph unicode="&#xe900;" glyph-name="minus-circle" d="M512 746.667c188.204 0 341.333-153.124 341.333-341.321s-153.129-341.346-341.333-341.346c-188.204 0-341.333 153.148-341.333 341.346s153.129 341.321 341.333 341.321zM512 670.826c-146.383 0-265.49-119.102-265.49-265.48s119.106-265.48 265.49-265.48c146.383 0 265.49 119.102 265.49 265.48s-119.106 265.48-265.49 265.48zM625.785 443.286v-75.865h-227.58v75.865h227.58z" />
<glyph unicode="&#xe901;" glyph-name="plus-circle" d="M511.988 789.333c188.222 0 341.346-153.124 341.346-341.321s-153.124-341.346-341.346-341.346c-188.197 0-341.321 153.148-341.321 341.346s153.124 341.321 341.321 341.321zM511.988 713.492c-146.378 0-265.48-119.102-265.48-265.48s119.102-265.48 265.48-265.48c146.403 0 265.48 119.102 265.48 265.48s-119.077 265.48-265.48 265.48zM549.916 561.788v-75.865h75.865v-75.841h-75.865v-75.865h-75.841v75.865h-75.865v75.841h75.865v75.865h75.841z" />
<glyph unicode="&#xe902;" glyph-name="add-user" d="M457.856 746.661c47.465-0.583 76.642-40.979 99.904-60.539 24.104-20.258 13.314-54.519 17.224-96.117 1.807-19.32 13.809-5.413 21.629-30.988 5.915-19.272-1.312-70.518-17.026-88.394-15.467-17.611-14.254-67.198-39.521-86.012-26.95-20.041-43.803-5.004-2.475-85.916 20.837-40.829 157.343-26.008 184.218-61.712 18.302-24.252 20.335-74.642 20.561-85.541l0.028-2.108h-614.399l0.035 2.108c0.239 10.898 2.253 61.289 20.555 85.541 26.875 35.704 163.381 20.884 184.218 61.664 41.353 80.96 24.45 65.923-2.475 85.964-25.267 18.814-24.054 68.401-39.521 86.012-15.69 17.876-22.941 69.123-17.026 88.394 7.82 25.575 19.823 11.669 21.629 30.988 3.935 41.599 3.242 150.684 105.646 140.050 21.505 12.006 40.264 16.793 56.795 16.607zM819.209 559.998v-74.68h76.791v-74.68h-76.791v-74.656h-76.815v74.656h-76.791v74.68h76.791v74.68h76.815z" />
<glyph unicode="&#xe903;" glyph-name="alarm-clock" d="M550.106 789.333v-78.481c150.154-18.771 266.76-146.354 266.76-300.773 0-167.3-136.769-303.413-304.875-303.413s-304.875 136.113-304.875 303.413c0 154.419 116.631 282.002 266.784 300.773v0 78.481h76.207zM511.99 637.627c-126.086 0-228.644-102.091-228.644-227.547 0-125.481 102.558-227.572 228.644-227.572s228.669 102.091 228.669 227.572c0 125.457-102.583 227.547-228.669 227.547zM550.101 561.764v-113.774h76.231v-75.841h-152.438v189.615h76.207zM246.873 787.693l53.882-53.624-76.207-75.865-53.882 53.648 76.207 75.841zM777.102 787.688l76.231-75.841-53.882-53.624-76.231 75.841 53.882 53.624z" />
<glyph unicode="&#xe904;" glyph-name="alert" d="M883.797 267.712l-271.79 483.145c-29.179 51.857-70.107 80.393-115.246 80.393-45.179 0-86.107-28.536-115.282-80.393l-271.753-483.145c-29.036-51.643-32.25-101.897-9.071-141.568 23.179-39.607 68.607-61.429 127.854-61.429h536.503c59.286 0 104.677 21.821 127.854 61.429 23.179 39.643 19.964 89.928-9.071 141.568h0.003zM838.297 158.107c-11.215-19.143-37.893-30.072-73.25-30.072h-536.503c-35.357 0-62.072 11-73.25 30.072-11.215 19.179-7.679 47.822 9.607 78.608l271.753 483.145c17.25 30.608 39.142 48.143 60.143 48.143s42.893-17.536 60.071-48.143l271.753-483.145c17.321-30.786 20.821-59.429 9.679-78.608h-0.004zM496.762 290.889c-23 0-41.643-18.643-41.643-41.643 0-23.035 18.643-41.714 41.643-41.714 23.035 0 41.679 18.643 41.679 41.714 0 22.964-18.643 41.643-41.679 41.643zM496.762 592.75c-23 0-41.643-18.643-41.643-41.643 0-1.25 0.25-2.357 0.321-3.536h-0.214l16.607-201.819h0.143c1.071-12.785 11.714-22.928 24.785-22.928 13.107 0 23.715 10.107 24.821 22.928h0.143l16.607 201.819h-0.214c0.107 1.179 0.321 2.286 0.321 3.536 0 22.964-18.643 41.643-41.679 41.643h0.001z" />
<glyph unicode="&#xe905;" glyph-name="minus" d="M856.086 408h-688.173v80h688.173v-80z" />
<glyph unicode="&#xe906;" glyph-name="x-twitter" d="M607.275 526.366l372.819 433.371h-88.346l-323.718-376.29-258.553 376.29h-298.21l390.983-569.018-390.983-454.457h88.351l341.855 397.375 273.051-397.375h298.21l-405.458 590.103zM486.266 385.706l-354.815 507.521h135.702l624.636-893.48h-135.702l-269.821 385.959z" />
<glyph unicode="&#xe907;" glyph-name="dry-hand" horiz-adv-x="927" d="M357.434 639.275c-69.555 0-125.585 56.030-125.585 125.585 0 1.932 0 5.796 3.864 9.66l106.264 158.43c7.728 11.592 25.117 11.592 32.845 0l106.264-158.43c1.932-3.864 1.932-7.728 1.932-11.592 0-67.623-56.030-123.653-125.585-123.653zM270.491 757.132c3.864-44.438 40.574-79.215 86.943-79.215s83.079 34.777 86.943 79.215l-86.943 127.517-86.943-127.517zM730.325 533.011c-69.555 0-125.585 56.030-125.585 125.585 0 3.864 1.932 7.728 3.864 11.592l106.264 158.43c7.728 11.592 25.117 11.592 32.845 0l106.264-158.43c1.932-3.864 3.864-7.728 3.864-11.592-1.932-69.555-59.894-125.585-127.517-125.585zM643.381 652.8c3.864-44.438 40.574-79.215 86.943-79.215s83.079 34.777 86.943 79.215l-86.943 127.517-86.943-127.517zM662.702-44.679h-340.045c-3.864 0-113.992 0-177.751 52.166h-106.264c-11.592 0-19.321 9.66-19.321 19.321v369.026c0 11.592 9.66 19.321 19.321 19.321h106.264l106.264 100.468c3.864 3.864 7.728 5.796 13.525 5.796h170.023c42.506 0 75.351-32.845 75.351-71.487 0-11.592-3.864-23.185-7.728-32.845h272.423c42.506 0 75.351-32.845 75.351-71.487 0-11.592-3.864-23.185-9.66-32.845 36.709-5.796 65.691-34.777 65.691-71.487s-28.981-65.691-65.691-71.487c5.796-9.66 9.66-21.253 9.66-32.845 0-40.574-34.777-71.487-75.351-71.487h-46.37c5.796-9.66 7.728-21.253 7.728-32.845 1.932-44.438-32.845-77.283-73.419-77.283zM57.962 46.128h94.672c5.796 0 9.66-1.932 13.525-5.796 50.234-46.37 154.566-46.37 156.498-46.37h340.045c21.253 0 36.709 15.457 36.709 32.845s-17.389 32.845-36.709 32.845c-11.592 0-19.321 9.66-19.321 19.321s9.66 19.321 19.321 19.321h113.992c21.253 0 36.709 15.457 36.709 32.845s-17.389 32.845-36.709 32.845c-11.592 0-19.321 9.66-19.321 19.321s9.66 19.321 19.321 19.321h56.030c21.253 0 36.709 15.457 36.709 32.845s-17.389 32.845-36.709 32.845h-56.030c-11.592 0-19.321 9.66-19.321 19.321s9.66 19.321 19.321 19.321c21.253 0 36.709 15.457 36.709 32.845s-17.389 32.845-36.709 32.845h-341.977c-11.592 0-19.321 9.66-19.321 19.321s9.66 19.321 19.321 19.321c21.253 0 36.709 15.457 36.709 32.845s-17.389 32.845-36.709 32.845h-162.294l-106.264-96.604c-3.864-3.864-7.728-5.796-13.525-5.796h-94.672v-328.453zM782.491 270.249h-212.528c-11.592 0-19.321 9.66-19.321 19.321s9.66 19.321 19.321 19.321h212.528c11.592 0 19.321-9.66 19.321-19.321s-7.728-19.321-19.321-19.321zM517.796 376.513h-212.528c-11.592 0-19.321 9.66-19.321 19.321s9.66 19.321 19.321 19.321h212.528c11.592 0 19.321-9.66 19.321-19.321s-9.66-19.321-19.321-19.321zM782.491 165.917h-212.528c-11.592 0-19.321 9.66-19.321 19.321s9.66 19.321 19.321 19.321h212.528c11.592 0 19.321-9.66 19.321-19.321s-7.728-19.321-19.321-19.321zM144.906 7.487c-11.592 0-19.321 9.66-19.321 19.321v369.026c0 11.592 9.66 19.321 19.321 19.321s19.321-9.66 19.321-19.321v-369.026c0-9.66-7.728-19.321-19.321-19.321zM782.491 59.653h-212.528c-11.592 0-19.321 9.66-19.321 19.321s9.66 19.321 19.321 19.321h212.528c11.592 0 19.321-9.66 19.321-19.321s-7.728-19.321-19.321-19.321z" />
<glyph unicode="&#xe908;" glyph-name="check-circle" d="M512-44.679c-272.423 0-492.679 220.257-492.679 492.679s220.257 492.679 492.679 492.679 492.679-220.257 492.679-492.679-220.257-492.679-492.679-492.679zM512 902.038c-251.17 0-454.038-202.868-454.038-454.038s202.868-454.038 454.038-454.038 454.038 202.868 454.038 454.038-202.868 454.038-454.038 454.038zM454.038 177.509c-13.525 0-25.117 5.796-30.913 15.457l-170.023 191.275c-7.728 7.728-11.592 19.321-11.592 28.981s3.864 21.253 11.592 28.981l30.913 30.913c7.728 7.728 17.389 13.525 28.981 13.525 0 0 0 0 0 0 11.592 0 21.253-3.864 28.981-13.525l1.932-1.932 112.060-125.585 280.151 303.336c1.932 1.932 5.796 3.864 7.728 5.796 7.728 5.796 15.457 7.728 23.185 7.728 0 0 0 0 0 0 11.592 0 21.253-3.864 28.981-13.525l28.981-30.913c7.728-5.796 11.592-15.457 11.592-25.117 0-11.592-3.864-23.185-11.592-30.913l-341.977-370.958c-7.728-9.66-17.389-13.525-28.981-13.525zM454.038 216.151c0 0 0 0 0 0l343.909 372.891c0 0 0 0 0 0s0 0 0 1.932c0 0 0 0 0 0l-30.913 30.913c-1.932-1.932-5.796-3.864-7.728-3.864l-282.083-307.2c-11.592-13.525-32.845-11.592-44.438 0l-119.789 133.313-30.913-30.913c0 0 0-1.932-1.932-1.932 0 0 0-1.932 1.932-1.932l3.864-3.864 168.091-189.343c0 0 0 0 0 0z" />
<glyph unicode="&#xe909;" glyph-name="arrow-down-left" d="M213.576 715.467l88.94-0.041-0.182-414.207 445.447 445.447 62.886-62.886-445.447-445.447 414.187 0.203 0.041-88.94-566.113-0.263z" />
<glyph unicode="&#xe90a;" glyph-name="arrow-down-right" d="M810.424 715.467l-88.94-0.041 0.182-414.207-445.447 445.447-62.886-62.886 445.447-445.447-414.187 0.203-0.041-88.94 566.113-0.263z" />
<glyph unicode="&#xe90b;" glyph-name="arrow-down" d="M853.333 448.293l-53.673 53.622-249.74-249.951v537.369h-75.865v-537.369l-249.716 249.951-53.673-53.622 341.321-341.627z" />
<glyph unicode="&#xe90c;" glyph-name="arrow-left" d="M512.306 106.667l53.6 53.673-249.96 249.74h537.388v75.841h-537.388l249.96 249.74-53.6 53.673-341.639-341.346z" />
<glyph unicode="&#xe90d;" glyph-name="arrow-right" d="M511.707 789.333l-53.622-53.673 249.951-249.74h-537.369v-75.865h537.369l-249.951-249.716 53.622-53.673 341.627 341.321z" />
<glyph unicode="&#xe90e;" glyph-name="arrow-up-left" d="M213.597 180.515l88.922 0.061-0.182 414.235 445.462-445.478 62.868 62.87-445.462 445.478 414.221-0.182 0.061 88.925-566.153 0.243z" />
<glyph unicode="&#xe90f;" glyph-name="arrow-up-right" d="M810.403 180.515l-88.922 0.061 0.182 414.235-445.462-445.478-62.868 62.87 445.462 445.478-414.221-0.182-0.061 88.925 566.153 0.243z" />
<glyph unicode="&#xe910;" glyph-name="arrow-up" d="M170.667 447.694l53.673-53.6 249.74 249.96v-537.388h75.841v537.388l249.74-249.96 53.673 53.6-341.346 341.639z" />
<glyph unicode="&#xe911;" glyph-name="attach" d="M694.847 640.012v-307.21c0-105.868-82.038-191.988-182.859-191.988s-182.835 86.12-182.835 191.988v307.21c0 63.526 49.209 115.198 109.706 115.198s109.706-51.672 109.706-115.198v-307.21c0-21.159-16.403-38.407-36.576-38.407s-36.576 17.249-36.576 38.407v307.21h-73.129v-307.21c0-63.526 49.209-115.198 109.706-115.198 60.521 0 109.706 51.672 109.706 115.198v307.21c0 105.868-82.014 191.988-182.835 191.988s-182.859-86.12-182.859-191.988v-307.21c0-148.21 114.844-268.802 255.988-268.802s256.012 120.592 256.012 268.802v307.21h-73.153z" />
<glyph unicode="&#xe912;" glyph-name="back" d="M234.671 744.826h127.996c11.741 0 21.337-8.369 21.337-18.555v-225.692l397.242 244.677c2.502 0.909 5.224 1.411 8.084 1.411 11.823 0 21.337-8.297 21.337-18.555v-560.224c0-10.234-9.514-18.555-21.337-18.555-2.86 0-5.582 0.526-8.084 1.435l-397.242 244.653v-225.692c0-10.186-9.596-18.555-21.337-18.555h-127.996c-11.713 0-21.337 8.369-21.337 18.555v556.542c0 10.186 9.624 18.555 21.337 18.555z" />
<glyph unicode="&#xe913;" glyph-name="plus-rounded" d="M801.811-44.679h-579.623c-56.030 0-104.332 19.321-144.906 59.894-38.642 38.642-57.962 88.875-57.962 142.974v579.623c0 56.030 19.321 104.332 59.894 144.906 38.642 38.642 86.943 57.962 142.974 57.962h577.691c56.030 0 104.332-19.321 144.906-59.894v0c38.642-38.642 59.894-88.875 59.894-144.906v-577.691c0-56.030-19.321-104.332-59.894-142.974-38.642-40.574-86.943-59.894-142.974-59.894zM222.189 902.038c-46.37 0-85.011-15.457-115.925-48.302-32.845-32.845-48.302-69.555-48.302-115.925v-577.691c0-46.37 15.457-83.079 48.302-115.925s69.555-48.302 115.925-48.302h577.691c46.37 0 83.079 15.457 115.925 48.302s48.302 71.487 48.302 115.925v577.691c0 46.37-15.457 83.079-48.302 115.925 0 0 0 0 0 0-32.845 32.845-69.555 48.302-115.925 48.302h-577.691zM535.185 191.034h-48.302c-11.592 0-23.185 3.864-30.913 11.592s-11.592 19.321-11.592 30.913v146.838h-146.838c-11.592 0-23.185 3.864-30.913 11.592s-11.592 19.321-11.592 30.913v46.37c0 11.592 3.864 23.185 11.592 30.913s19.321 11.592 30.913 11.592h146.838v146.838c0 11.592 3.864 23.185 11.592 30.913s19.321 11.592 30.913 11.592h48.302c11.592 0 23.185-3.864 30.913-11.592s11.592-19.321 11.592-30.913v-142.974h146.838c11.592 0 23.185-3.864 30.913-11.592s11.592-19.321 11.592-30.913v-46.37c0-11.592-3.864-23.185-11.592-30.913s-19.321-11.592-30.913-11.592h-144.906v-146.838c0-11.592-3.864-23.185-11.592-30.913-9.66-9.66-19.321-15.457-32.845-15.457zM299.472 475.049c-1.932 0-1.932 0-3.864 0 0 0-1.932-1.932-1.932-3.864v-46.37c0-1.932 0-1.932 0-3.864 0 0 1.932-1.932 3.864-1.932h166.158c11.592 0 19.321-9.66 19.321-19.321v-166.158c0-1.932 0-1.932 0-3.864 0 0 0 0 3.864 0h48.302c1.932 0 1.932 0 3.864 0 0 0 0 0 0 3.864v166.158c0 11.592 9.66 19.321 19.321 19.321h166.158c1.932 0 1.932 0 3.864 0 0 0 0 0 0 3.864v46.37c0 1.932 0 1.932 0 3.864 0 0 0 0-3.864 0h-164.226c-11.592 0-19.321 9.66-19.321 19.321v166.158c0 1.932 0 1.932-1.932 3.864 0 0 0 0-3.864 0h-48.302c-1.932 0-1.932 0-3.864-1.932 0 0 0 0 0-3.864v-160.362c0-11.592-9.66-19.321-19.321-19.321h-164.226z" />
<glyph unicode="&#xe914;" glyph-name="bell" d="M592.329 182.531c0-41.916-35.946-75.864-80.329-75.864s-80.329 33.948-80.329 75.864v0zM511.987 789.333c132.527 0 240.961-102.407 240.961-227.569v0-208.578l100.385-132.738h-682.667l100.385 132.738v208.578c0 125.162 108.434 227.569 240.935 227.569z" />
<glyph unicode="&#xe915;" glyph-name="bin" d="M773.319 639.978v-565.337c0-10.567-8.397-10.641-18.67-10.641v0h-485.335c-10.249 0-18.67 0.074-18.67 10.641v0 565.337h522.676zM474.664 524.807h-37.341v-307.205h37.341v307.205zM586.662 524.807h-37.341v-307.205h37.341v307.205zM594.393 832l74.658-76.814h122.946c10.274 0 18.67-17.199 18.67-27.766v0-49.023h-597.333v49.023c0 10.567 8.397 27.766 18.67 27.766v0h122.922l74.658 76.814h164.81zM578.922 793.593h-133.869l-37.341-38.407h208.551l-37.341 38.407z" />
<glyph unicode="&#xe916;" glyph-name="calendar" d="M675.207 789.332c19.315-0.185 35.043-14.448 36.656-32.509l0.135-3.429-0.574-53.618 110.253-0.026c41.047 0 74.323-31.864 74.323-71.17v-450.744c0-39.306-33.275-71.17-74.323-71.17h-619.355c-41.047 0-74.323 31.864-74.323 71.17v450.744c0 39.306 33.275 71.17 74.323 71.17l112.728 0.026 0.564 54.323c0.203 19.652 17.005 35.425 37.528 35.232 19.315-0.185 35.043-14.448 36.656-32.509l0.135-3.429-0.558-53.618h247.723l0.581 54.323c0.203 19.652 17.005 35.425 37.528 35.232zM821.675 431.872h-619.392l0.040-254.035h619.355l-0.003 254.035zM314.283 628.608l-111.96-0.028-0.040-125.54h619.392l0.003 125.54-110.979 0.028-0.507-49.735c-0.203-19.652-17.005-35.425-37.528-35.232-19.315 0.185-35.043 14.448-36.656 32.509l-0.135 3.429 0.501 49.030h-247.765l-0.481-49.735c-0.203-19.652-17.005-35.425-37.528-35.232-19.315 0.185-35.043 14.448-36.656 32.509l-0.135 3.429 0.474 49.030z" />
<glyph unicode="&#xe917;" glyph-name="camera" d="M627.198 746.667l76.815-75.78h38.407v18.927c0 10.428 8.637 18.951 19.179 18.951v0h38.407c10.542 0 19.204-8.523 19.204-18.951v0-18.927h57.586c10.567 0 19.204-8.548 19.204-18.951v0-492.633c0-10.428-8.637-18.951-19.204-18.951v0h-729.593c-10.567 0-19.204 8.523-19.204 18.951v0 492.633c0 10.404 8.637 18.951 19.204 18.951v0h172.809l76.79 75.78h230.395zM512 595.106c-106.066 0-191.988-84.816-191.988-189.487s85.922-189.487 191.988-189.487c106.066 0 192.012 84.816 192.012 189.487s-85.947 189.487-192.012 189.487zM512 519.304c63.625 0 115.198-50.87 115.198-113.683 0-62.788-51.573-113.707-115.198-113.707s-115.198 50.919-115.198 113.707c0 62.812 51.573 113.683 115.198 113.683z" />
<glyph unicode="&#xe918;" glyph-name="chevron-down" d="M515.032 377.308l241.359 241.359 60.34-60.34-301.699-301.699-301.699 301.699 60.34 60.34z" />
<glyph unicode="&#xe919;" glyph-name="chevron-left" d="M454.692 437.647l241.359-241.359-60.34-60.34-301.699 301.699 301.699 301.699 60.34-60.34z" />
<glyph unicode="&#xe91a;" glyph-name="chevron-right" d="M575.372 437.647l-241.359-241.359 60.34-60.34 301.699 301.699-301.699 301.699-60.34-60.34z" />
<glyph unicode="&#xe91b;" glyph-name="chevron-up" d="M515.032 497.987l241.359-241.359 60.34 60.34-301.699 301.699-301.699-301.699 60.34-60.34z" />
<glyph unicode="&#xe91c;" glyph-name="clock" d="M512 789.333c188.228 0 341.333-153.124 341.333-341.346s-153.105-341.321-341.333-341.321c-188.228 0-341.333 153.1-341.333 341.321s153.105 341.346 341.333 341.346zM512 713.468c-146.359 0-265.49-119.077-265.49-265.48 0-146.354 119.131-265.48 265.49-265.48 146.383 0 265.49 119.126 265.49 265.48 0 146.403-119.106 265.48-265.49 265.48zM549.929 637.617v-151.706h75.868v-75.841h-151.736v227.547h75.868z" />
<glyph unicode="&#xe91d;" glyph-name="cloud" d="M796.72 464.914c0 0.46 0.078 0.894 0.078 1.353 0 131.084-109.085 237.733-243.195 237.733-105.768 0-195.705-66.435-229.141-158.761-108.85-3.089-196.463-90.538-196.463-197.825 0-109.228 91.061-198.081 202.967-198.081h445.561c89.389 0 162.139 71.082 162.139 158.454 0 80.708-62.039 147.348-141.946 157.127z" />
<glyph unicode="&#xe91e;" glyph-name="cog" d="M533.346 325.921c-55.651 0-100.733 45.16-100.733 100.733 0 55.651 45.082 100.759 100.733 100.759 55.573 0 100.733-45.108 100.733-100.759 0-55.573-45.16-100.733-100.733-100.733v0zM896 366.224v120.885l-89.826 9.972c-6.648 25.865-16.854 50.276-30.098 72.738l56.43 70.531-85.489 85.489-70.505-56.43c-22.489 13.27-46.874 23.424-72.764 30.124l-9.946 89.8h-120.911l-9.972-89.8c-25.917-6.7-50.301-16.854-72.738-30.124l-70.557 56.43-85.515-85.489 56.482-70.531c-13.27-22.437-23.424-46.874-30.124-72.738l-89.8-9.972v-120.885l89.8-9.972c6.7-25.917 16.854-50.301 30.124-72.738l-56.482-70.557 85.515-85.489 70.557 56.456c22.437-13.27 46.822-23.45 72.738-30.098l9.972-89.826h120.911l9.946 89.826c25.891 6.648 50.276 16.828 72.713 30.098l70.557-56.456 85.489 85.489-56.43 70.557c13.296 22.437 23.45 46.822 30.098 72.738l89.826 9.972z" />
<glyph unicode="&#xe91f;" glyph-name="comment" d="M625.786 410.069c-20.946 0-37.933 16.986-37.933 37.931s16.987 37.931 37.933 37.931c20.946 0 37.933-16.986 37.933-37.931s-16.987-37.931-37.933-37.931zM512.012 410.069c-20.946 0-37.933 16.986-37.933 37.931s16.987 37.931 37.933 37.931c20.946 0 37.908-16.986 37.908-37.931s-16.962-37.931-37.908-37.931zM398.214 410.069c-20.922 0-37.908 16.986-37.908 37.931s16.987 37.931 37.908 37.931c20.946 0 37.933-16.986 37.933-37.931s-16.987-37.931-37.933-37.931zM512.012 789.333c-188.539 0-341.346-152.825-341.346-341.333 0-94.266 38.202-179.587 99.964-241.372l-99.964-99.961h341.346c188.539 0 341.321 152.801 341.321 341.333 0 188.508-152.782 341.333-341.321 341.333z" />
<glyph unicode="&#xe920;" glyph-name="crop" d="M360.313 296.306v303.413h303.424v-303.413h-303.424zM739.58 296.306v322.355c0 31.382-25.542 56.899-56.901 56.899h-322.366v113.774h-75.868v-113.774h-113.778v-75.841h113.778v-322.379c0-31.382 25.518-56.899 56.901-56.899h322.366v-113.774h75.868v113.774h113.753v75.865h-113.753z" />
<glyph unicode="&#xe921;" glyph-name="document" d="M735.988 165.537c0-13.611-10.826-24.747-24.059-24.747h-399.882c-13.232 0-24.059 11.136-24.059 24.747v564.926c0 13.586 10.826 24.747 24.059 24.747h213.21c13.256 0 24.059-11.161 24.059-24.747v-142.518c0-13.611 10.826-24.747 24.059-24.747h138.555c13.232 0 24.059-11.136 24.059-24.747v-372.913zM603.664 814.504c-9.359 9.627-21.196 17.496-26.344 17.496h-321.258c-13.232 0-28.269-1.93-33.394-4.331-5.149-2.376-9.335-26.009-9.335-39.62v-680.098c0-13.611 1.877-29.078 4.21-34.349 2.286-5.296 25.286-9.602 38.518-9.602h511.876c13.208 0 28.245 1.955 33.37 4.306 5.149 2.376 9.359 26.034 9.359 39.645v468.907c0 13.611-7.675 32.617-17.034 42.243l-189.969 195.403z" />
<glyph unicode="&#xe922;" glyph-name="drawer" d="M736.009 755.188v-499.181h-145.273c0-38.406-35.464-76.788-76.703-76.788-41.214 0-76.703 38.381-76.703 76.788h-149.339v499.181h448.018zM810.667 812.797c0 10.591-8.349 19.203-18.67 19.203h-559.992c-10.322 0-18.67-8.612-18.67-19.203v-729.594c0-10.591 8.349-19.203 18.67-19.203h559.992c10.322 0 18.67 8.612 18.67 19.203v729.594z" />
<glyph unicode="&#xe923;" glyph-name="dribble" d="M674.816 206.251c-2.901 17.579-18.517 103.125-56.661 208.213 94.080 15.019 175.573-10.752 181.589-12.757-12.928-81.195-59.435-151.296-124.928-195.456zM512 156.501c-70.613 0-135.253 25.088-185.685 66.773 3.84-3.072 6.485-5.077 6.485-5.077s55.936 121.899 228.779 182.101c0.64 0.256 1.237 0.427 1.92 0.597 41.003-106.581 57.984-195.797 62.251-221.312-34.944-14.891-73.429-23.083-113.749-23.083zM220.501 448.043c0 3.072 0.128 6.144 0.213 9.173 5.205-0.085 149.205-3.371 299.264 41.515 8.32-16.299 16.341-32.939 23.68-49.536-3.925-1.067-7.68-2.219-11.52-3.456-157.312-50.816-237.056-192.384-237.056-192.384s0.085-0.085 0.085-0.128c-46.421 51.627-74.667 119.893-74.667 194.816zM387.584 711.637c3.883-5.205 57.813-78.293 108.245-167.979-139.947-37.163-261.419-35.712-269.099-35.584 18.901 90.283 79.573 165.163 160.853 203.563zM704.469 666.752c-0.725-1.109-42.24-64.299-152.235-105.557-49.835 91.563-104.576 164.309-108.928 170.069 22.016 5.376 45.013 8.235 68.693 8.235 73.728 0 141.141-27.477 192.469-72.747zM803.413 450.901c-4.267 0.939-102.912 22.144-203.093 9.557-2.005 4.992-4.096 9.984-6.272 15.061-6.059 14.293-12.587 28.416-19.413 42.283 115.2 46.933 161.92 114.517 162.432 115.371 40.917-49.664 65.579-113.109 66.347-182.272zM846.336 516.693c-4.437 21.931-11.179 43.563-19.925 64.171-8.491 20.267-19.115 39.765-31.445 57.984-12.245 18.091-26.24 35.072-41.643 50.475-15.403 15.488-32.427 29.483-50.517 41.685-18.219 12.331-37.76 22.912-57.984 31.488-20.608 8.661-42.155 15.403-64.171 19.883-22.4 4.608-45.568 6.955-68.651 6.955-23.168 0-46.251-2.347-68.779-6.955-21.888-4.48-43.477-11.221-64.171-19.883-20.139-8.576-39.723-19.157-57.984-31.488-18.005-12.203-34.987-26.197-50.517-41.685-15.403-15.403-29.397-32.384-41.557-50.475-12.331-18.219-22.912-37.717-31.531-57.984-8.747-20.608-15.403-42.24-19.883-64.171-4.608-22.4-6.912-45.568-6.912-68.651 0-23.168 2.304-46.336 6.912-68.779 4.48-21.931 11.136-43.52 19.883-64.128 8.619-20.224 19.2-39.808 31.531-58.027 12.16-18.048 26.155-35.029 41.557-50.475 15.531-15.445 32.512-29.44 50.517-41.643 18.261-12.331 37.845-22.912 57.984-31.445 20.693-8.747 42.283-15.403 64.171-19.925 22.528-4.608 45.611-6.955 68.779-6.955 23.083 0 46.251 2.347 68.651 6.955 22.016 4.523 43.563 11.179 64.171 19.925 20.224 8.533 39.765 19.115 57.984 31.445 18.091 12.203 35.115 26.197 50.517 41.643s29.397 32.427 41.643 50.475c12.331 18.219 22.955 37.803 31.445 58.027 8.747 20.608 15.488 42.197 19.925 64.128 4.651 22.443 6.997 45.611 6.997 68.779 0 23.083-2.347 46.251-6.997 68.651z" />
<glyph unicode="&#xe924;" glyph-name="education" d="M531.204 746.667l364.796-227.363-364.796-227.363-326.414 203.43v-227.656c11.458-6.569 19.204-18.633 19.204-32.627 0-13.236-6.904-24.861-17.348-31.626v0l36.551-63.105h-115.198l36.551 63.105c-10.443 6.765-17.372 18.389-17.372 31.626 0 13.993 7.771 26.058 19.204 32.627v0 251.589l364.821 227.363zM281.607 402.709l249.599-155.588 249.599 155.564v-106.746l-249.599-155.588-249.599 155.588v106.77z" />
<glyph unicode="&#xe925;" glyph-name="email" d="M853.333 535.827v-285.92c0-8.386-7.699-15.241-17.070-15.241v0h-648.549c-9.371 0-17.048 6.854-17.048 15.241v0 285.92l341.333-152.387 341.333 152.387zM836.263 661.333c9.371 0 17.070-6.874 17.070-15.241v0-42.128l-341.333-152.368-341.333 152.368v42.128c0 8.367 7.677 15.241 17.048 15.241v0z" />
<glyph unicode="&#xe926;" glyph-name="eye-Closed" d="M231.96 746.667l614.383-627.214-54.294-55.453-134.102 136.902c-46.796-19.933-95.621-30.771-145.931-30.771-145.337 0-278.745 88.169-384.017 235.202 49.939 69.702 106.237 125.913 167.064 166.031v0l-117.398 119.849 54.294 55.453zM379.821 484.837c-13.512-23.293-21.406-50.426-21.406-79.504 0-86.603 68.746-156.81 153.602-156.81 28.459 0 54.987 8.11 77.828 21.929v0l-58.229 59.445c-6.286-1.743-12.794-2.981-19.599-2.981-42.416 0-76.813 35.192-76.813 78.417 0 6.973 1.188 13.642 2.846 20.059v0zM512.007 640.535c145.337 0 278.77-88.169 383.993-235.202-36.749-51.335-76.987-95.293-119.897-131.041v0l-111.483 113.811c0.619 5.659 0.99 11.419 0.99 17.23 0 86.603-68.771 156.81-153.602 156.81-5.692 0-11.334-0.379-16.877-1.011v0l-67.731 69.171c27.642 6.644 55.878 10.232 84.609 10.232z" />
<glyph unicode="&#xe927;" glyph-name="eye" d="M511.988 661.333c145.335 0 278.767-87.964 384.012-234.654-105.246-146.69-238.678-234.679-384.012-234.679-145.31 0-278.717 87.989-383.988 234.679 105.271 146.69 238.678 234.654 383.988 234.654zM511.988 583.124c-84.83 0-153.6-70.043-153.6-156.444s68.77-156.444 153.6-156.444c84.83 0 153.6 70.043 153.6 156.444s-68.77 156.444-153.6 156.444zM511.988 504.904c42.366 0 76.812-35.034 76.812-78.235 0-43.125-34.447-78.21-76.812-78.21-42.415 0-76.788 35.085-76.788 78.21 0 43.201 34.373 78.235 76.788 78.235z" />
<glyph unicode="&#xe928;" glyph-name="facebook" d="M658.603 568.277h-108.075v70.869c0 26.581 17.664 32.811 30.080 32.811h76.203v116.992l-105.003 0.384c-116.523 0-143.019-87.253-143.019-143.061v-77.995h-67.456v-120.491h67.456v-341.12h141.739v341.12h95.659l12.416 120.491z" />
<glyph unicode="&#xe929;" glyph-name="filters" d="M436.154 334.217c49.541 0 91.555-31.676 107.148-75.867v0h291.065c10.412 0 18.966-8.53 18.966-18.942v0-37.933c0-10.437-8.554-18.967-18.966-18.967v0h-291.065c-15.593-44.166-57.607-75.842-107.148-75.842-49.566 0-91.555 31.676-107.197 75.842v0h-139.312c-10.436 0-18.966 8.53-18.966 18.967v0 37.933c0 10.412 8.53 18.942 18.966 18.942v0h139.312c15.642 44.19 57.631 75.867 107.197 75.867zM436.154 277.317c-31.431 0-56.898-25.468-56.898-56.875 0-31.432 25.467-56.9 56.898-56.9 31.406 0 56.898 25.468 56.898 56.9 0 31.407-25.492 56.875-56.898 56.875zM663.698 561.756c49.566 0 91.555-31.652 107.173-75.842v0h63.497c10.412 0 18.966-8.53 18.966-18.942v0-37.933c0-10.437-8.554-18.967-18.966-18.967v0h-63.497c-15.618-44.166-57.607-75.867-107.173-75.867-49.541 0-91.555 31.701-107.173 75.867v0h-366.88c-10.436 0-18.966 8.53-18.966 18.967v0 37.933c0 10.412 8.53 18.942 18.966 18.942v0h366.88c15.618 44.19 57.631 75.842 107.173 75.842zM663.698 504.88c-31.431 0-56.898-25.468-56.898-56.875 0-31.432 25.467-56.9 56.898-56.9 31.406 0 56.898 25.468 56.898 56.9 0 31.407-25.492 56.875-56.898 56.875zM360.302 789.333c49.541 0 91.555-31.676 107.173-75.867v0h366.88c10.436 0 18.966-8.53 18.966-18.942v0-37.933c0-10.437-8.53-18.967-18.966-18.967v0h-366.88c-15.618-44.19-57.631-75.867-107.173-75.867-49.566 0-91.555 31.676-107.173 75.867v0h-63.497c-10.412 0-18.966 8.53-18.966 18.967v0 37.933c0 10.412 8.554 18.942 18.966 18.942v0h63.497c15.618 44.19 57.607 75.867 107.173 75.867zM360.302 732.433c-31.431 0-56.898-25.468-56.898-56.875 0-31.432 25.467-56.9 56.898-56.9 31.406 0 56.898 25.468 56.898 56.9 0 31.407-25.492 56.875-56.898 56.875z" />
<glyph unicode="&#xe92a;" glyph-name="reuse" d="M53.426 336.696c-11.13 0-20.035 6.678-22.261 17.809-6.678 33.391-8.904 66.783-8.904 100.174 2.226 131.339 53.426 251.548 146.922 342.817 91.27 93.496 213.704 142.47 342.817 140.243 133.565-2.226 262.678-60.104 351.722-162.504 8.904-8.904 6.678-24.487-2.226-31.165s-24.487-6.678-33.391 2.226c-80.139 91.27-195.896 144.696-318.33 146.922-115.757 0-227.061-42.296-309.426-126.887-84.591-82.365-131.339-193.67-133.565-311.652 0-31.165 2.226-62.33 8.904-91.27 2.226-11.13-6.678-24.487-17.809-26.713-2.226 0-4.452 0-4.452 0zM852.591 715.13c0 0-2.226 0-2.226 0l-140.243 17.809c-13.357 2.226-22.261 13.357-20.035 24.487 2.226 13.357 13.357 22.261 24.487 20.035l117.983-13.357 13.357 133.565c2.226 13.357 13.357 22.261 24.487 20.035 13.357-2.226 22.261-13.357 20.035-24.487l-15.583-155.826c0-6.678-4.452-11.13-8.904-15.583s-8.904-6.678-13.357-6.678zM133.565 2.783c0 0-2.226 0-2.226 0-13.357 2.226-22.261 13.357-20.035 24.487l15.583 155.826c0 6.678 4.452 11.13 8.904 15.583s11.13 4.452 15.583 4.452l140.243-17.809c13.357-2.226 22.261-13.357 20.035-24.487s-13.357-20.035-24.487-20.035l-117.983 13.357-13.357-133.565c0-8.904-11.13-17.809-22.261-17.809zM518.678-41.739c-2.226 0-4.452 0-6.678 0-133.565 2.226-262.678 60.104-351.722 162.504-8.904 8.904-6.678 24.487 2.226 31.165s24.487 6.678 33.391-2.226c80.139-91.27 198.122-144.696 318.33-146.922 115.757-2.226 227.061 42.296 311.652 124.661s131.339 193.67 133.565 311.652c0 31.165-2.226 62.33-8.904 91.27-2.226 11.13 6.678 24.487 17.809 26.713s24.487-6.678 26.713-17.809c6.678-33.391 8.904-66.783 8.904-100.174-2.226-131.339-53.426-251.548-146.922-342.817-91.27-89.043-211.478-138.017-338.365-138.017z" />
<glyph unicode="&#xe92b;" glyph-name="open-quote" horiz-adv-x="1280" d="M520.533-35.556h-463.644c-17.067 0-28.444 14.222-28.444 28.444v352.711c0 290.133 159.289 514.844 418.133 585.956 11.378 2.844 25.6-2.844 31.289-11.378l68.267-110.933c5.689-5.689 5.689-14.222 2.844-22.756s-8.533-14.222-14.222-17.067c-164.978-85.333-201.956-230.4-207.644-324.267h190.578c17.067 0 28.444-14.222 28.444-28.444v-423.822c2.844-17.067-11.378-28.444-25.6-28.444zM85.333 21.333h403.911v361.244h-190.578c-17.067 0-28.444 14.222-28.444 28.444 0 167.822 76.8 307.2 213.333 389.689l-42.667 68.267c-219.022-68.267-355.556-267.378-355.556-523.378v-324.267zM1214.578-35.556h-457.956c-17.067 0-28.444 14.222-28.444 28.444v352.711c0 290.133 159.289 514.844 415.289 585.956 11.378 2.844 25.6-2.844 31.289-11.378l73.956-110.933c2.844-8.533 5.689-17.067 2.844-25.6s-8.533-14.222-14.222-17.067c-159.289-79.644-204.8-213.333-210.489-324.267h190.578c17.067 0 28.444-14.222 28.444-28.444v-420.978c-2.844-17.067-14.222-28.444-31.289-28.444zM785.067 21.333h401.067v361.244h-190.578c-17.067 0-28.444 14.222-28.444 28.444 0 173.511 76.8 310.044 213.333 389.689l-42.667 68.267c-219.022-68.267-352.711-267.378-352.711-523.378v-324.267z" />
<glyph unicode="&#xe92c;" glyph-name="flickr" d="M322.091 618.667c83.584 0 151.424-67.797 151.424-151.381s-67.84-151.381-151.424-151.381c-83.627 0-151.424 67.797-151.424 151.381s67.797 151.381 151.424 151.381zM701.926 618.667c83.627 0 151.424-67.797 151.424-151.381s-67.797-151.381-151.424-151.381c-83.584 0-151.381 67.797-151.381 151.381s67.797 151.381 151.381 151.381z" />
<glyph unicode="&#xe92d;" glyph-name="folder" d="M128 168.003c0-10.249 8.661-18.67 19.203-18.67h729.594c10.542 0 19.203 8.421 19.203 18.67v448c0 10.249-8.661 18.646-19.203 18.646h-403.191l-115.194 112.018h-211.209c-10.542 0-19.203-8.397-19.203-18.67v-559.994z" />
<glyph unicode="&#xe92e;" glyph-name="forward" d="M790.853 744.694h-118.853c-10.902 0-19.813-8.966-19.813-19.88v-241.813l-368.867 262.154c-2.323 0.974-4.851 1.511-7.507 1.511-10.953 0-19.813-8.89-19.813-19.88v-600.24c0-10.965 8.86-19.88 19.813-19.88 2.655 0 5.183 0.564 7.507 1.537l368.867 262.128v-241.813c0-10.913 8.911-19.88 19.813-19.88h118.853c10.877 0 19.813 8.966 19.813 19.88v596.295c0 10.913-8.936 19.88-19.813 19.88z" />
<glyph unicode="&#xe92f;" glyph-name="speech-bubble" horiz-adv-x="1199" d="M154.849-39.024c-12.488 0-22.478 4.995-32.468 9.99-9.99 7.493-14.985 17.483-19.98 29.971-2.498 4.995-2.498 12.488 0 22.478 0 0 0 0 0 0 0 9.99 4.995 14.985 7.493 19.98l2.498 4.995c0 0 0 2.498 2.498 2.498l4.995 4.995c4.995 2.498 4.995 4.995 7.493 7.493l39.961 42.459c2.498 4.995 9.99 9.99 17.483 22.478 7.493 9.99 12.488 19.98 17.483 27.473 4.995 9.99 9.99 19.98 14.985 32.468 2.498 7.493 7.493 14.985 9.99 24.976-59.941 34.966-107.395 79.922-142.361 129.873-39.961 54.946-59.941 117.385-59.941 182.322 0 57.444 14.985 112.39 47.454 162.341 29.971 49.951 72.429 94.907 124.878 129.873 49.951 34.966 112.39 64.937 182.322 84.917 69.932 22.478 142.361 32.468 219.785 32.468 102.4 0 199.805-17.483 284.722-52.449 87.415-34.966 157.346-84.917 209.795-147.356s79.922-134.868 79.922-209.795c0-74.927-27.473-144.859-79.922-209.795-52.449-62.439-122.38-112.39-209.795-147.356s-182.322-52.449-284.722-52.449c-24.976 0-52.449 2.498-79.922 4.995-82.42-69.932-177.327-117.385-284.722-144.859-19.98-4.995-44.956-9.99-72.429-14.985-2.498 0-4.995 0-7.493 0zM154.849 13.424c0 0 0-2.498 0 0 27.473 0 49.951 4.995 67.434 9.99 102.4 24.976 194.81 72.429 272.234 139.863 4.995 4.995 12.488 7.493 19.98 4.995 29.971-2.498 59.941-4.995 87.415-4.995 94.907 0 184.82 17.483 267.239 49.951 79.922 32.468 144.859 77.424 189.815 132.371s67.434 114.888 67.434 177.327c0 64.937-22.478 122.38-67.434 177.327v0c-44.956 54.946-109.893 99.902-189.815 132.371-84.917 34.966-174.829 52.449-269.737 52.449-72.429 0-139.863-9.99-207.298-29.971-64.937-19.98-119.883-44.956-167.337-77.424-44.956-32.468-82.42-72.429-109.893-117.385-24.976-42.459-39.961-87.415-39.961-134.868 0-54.946 17.483-107.395 49.951-154.849 34.966-49.951 82.42-92.41 142.361-124.878 9.99-4.995 14.985-17.483 12.488-29.971-4.995-17.483-9.99-32.468-17.483-47.454-4.995-14.985-12.488-27.473-17.483-37.463s-12.488-22.478-22.478-34.966c-7.493-12.488-14.985-19.98-19.98-24.976l-39.961-42.459c0 0 0 0-2.498-2.498 0 0-2.498-2.498-2.498-2.498l-2.498-9.99c0 2.498 0 0 0 0zM104.898 20.917c0 0 0-2.498 0-4.995 0 2.498 0 2.498 0 4.995z" />
<glyph unicode="&#xe930;" glyph-name="gauge" d="M533.333 746.667c108.275 0 210.072-41.632 286.635-117.214 76.563-75.556 118.698-176.066 118.698-282.969 0-87.75-28.812-170.936-81.317-239.816v0l-57.938 57.151c37.694 53.232 58.2 116.338 58.2 182.666 0 85.507-33.723 165.91-94.979 226.386-61.23 60.45-142.652 93.756-229.298 93.756-86.594 0-168.068-33.306-229.298-93.756-61.23-60.476-94.953-140.879-94.953-226.386 0-66.328 20.48-129.433 58.147-182.691v0l-57.886-57.125c-52.531 68.854-81.344 152.067-81.344 239.816 0 106.903 42.161 207.413 118.724 282.969 76.537 75.582 178.334 117.214 286.609 117.214zM644.816 437.184c0 0-42.056-191.843-58.826-220.534s-53.968-38.513-83.041-21.937c-29.074 16.55-39.026 53.258-22.256 81.949 16.796 28.691 164.124 160.522 164.124 160.522zM290.146 386.659c22.386 0 40.515-17.916 40.515-40.008 0-22.066-18.129-40.008-40.515-40.008s-40.541 17.942-40.541 40.008c0 22.092 18.155 40.008 40.541 40.008zM776.559 386.666c22.36 0 40.515-17.916 40.515-40.008 0-22.066-18.155-40.008-40.515-40.008-22.413 0-40.541 17.942-40.541 40.008 0 22.092 18.129 40.008 40.541 40.008zM332.696 544.641c15.83 15.622 41.508 15.622 57.338 0 15.83-15.596 15.804-40.936 0-56.558-15.83-15.622-41.508-15.622-57.338 0-15.804 15.622-15.804 40.962 0 56.558zM676.667 544.652c15.83 15.622 41.482 15.622 57.311 0 15.804-15.596 15.83-40.936 0-56.558s-41.508-15.622-57.311 0c-15.83 15.622-15.83 40.936 0 56.558zM533.336 626.663c22.36 0 40.541-17.916 40.541-40.008s-18.181-39.982-40.541-39.982c-22.386 0-40.541 17.89-40.541 39.982s18.155 40.008 40.541 40.008z" />
<glyph unicode="&#xe931;" glyph-name="grid-2x2" d="M449.636 410.078c13.443 0 24.441-10.998 24.441-24.441v0-254.53c0-13.443-10.998-24.441-24.441-24.441v0h-254.529c-13.443 0-24.441 10.998-24.441 24.441v0 254.53c0 13.443 10.998 24.441 24.441 24.441v0zM828.892 410.078c13.443 0 24.441-10.998 24.441-24.441v0-254.53c0-13.443-10.998-24.441-24.441-24.441v0h-254.529c-13.443 0-24.441 10.998-24.441 24.441v0 254.53c0 13.443 10.998 24.441 24.441 24.441v0zM449.636 789.333c13.443 0 24.441-10.998 24.441-24.441v0-254.53c0-13.443-10.998-24.441-24.441-24.441v0h-254.529c-13.443 0-24.441 10.998-24.441 24.441v0 254.53c0 13.443 10.998 24.441 24.441 24.441v0zM828.892 789.333c13.443 0 24.441-10.998 24.441-24.441v0-254.53c0-13.443-10.998-24.441-24.441-24.441v0h-254.529c-13.443 0-24.441 10.998-24.441 24.441v0 254.53c0 13.443 10.998 24.441 24.441 24.441v0z" />
<glyph unicode="&#xe932;" glyph-name="grid-3x3" d="M303.406 258.372c10.412 0 18.966-8.53 18.966-18.966v0-113.773c0-10.436-8.554-18.966-18.966-18.966v0h-113.773c-10.436 0-18.966 8.53-18.966 18.966v0 113.773c0 10.436 8.53 18.966 18.966 18.966v0zM834.367 258.372c10.412 0 18.966-8.53 18.966-18.966v0-113.773c0-10.436-8.554-18.966-18.966-18.966v0h-113.773c-10.436 0-18.966 8.53-18.966 18.966v0 113.773c0 10.436 8.53 18.966 18.966 18.966v0zM568.882 258.372c10.436 0 18.966-8.53 18.966-18.966v0-113.773c0-10.436-8.53-18.966-18.966-18.966v0h-113.773c-10.412 0-18.966 8.53-18.966 18.966v0 113.773c0 10.436 8.554 18.966 18.966 18.966v0zM303.406 523.845c10.412 0 18.966-8.53 18.966-18.966v0-113.773c0-10.412-8.554-18.966-18.966-18.966v0h-113.773c-10.436 0-18.966 8.554-18.966 18.966v0 113.773c0 10.436 8.53 18.966 18.966 18.966v0zM834.367 523.845c10.412 0 18.966-8.53 18.966-18.966v0-113.773c0-10.412-8.554-18.966-18.966-18.966v0h-113.773c-10.436 0-18.966 8.554-18.966 18.966v0 113.773c0 10.436 8.53 18.966 18.966 18.966v0zM568.882 523.845c10.436 0 18.966-8.53 18.966-18.966v0-113.773c0-10.412-8.53-18.966-18.966-18.966v0h-113.773c-10.412 0-18.966 8.554-18.966 18.966v0 113.773c0 10.436 8.554 18.966 18.966 18.966v0zM303.406 789.331c10.412 0 18.966-8.53 18.966-18.966v0-113.773c0-10.436-8.554-18.966-18.966-18.966v0h-113.773c-10.436 0-18.966 8.53-18.966 18.966v0 113.773c0 10.436 8.53 18.966 18.966 18.966v0zM834.362 789.333c10.436 0 18.966-8.554 18.966-18.966v0-113.773c0-10.436-8.53-18.966-18.966-18.966v0h-113.773c-10.436 0-18.966 8.53-18.966 18.966v0 113.773c0 10.412 8.53 18.966 18.966 18.966v0zM568.882 789.331c10.436 0 18.966-8.53 18.966-18.966v0-113.773c0-10.436-8.53-18.966-18.966-18.966v0h-113.773c-10.412 0-18.966 8.53-18.966 18.966v0 113.773c0 10.436 8.554 18.966 18.966 18.966v0z" />
<glyph unicode="&#xe933;" glyph-name="headphones" d="M322.385 334.236c41.721 0 75.841-34.144 75.841-75.865v0-75.84c0-41.721-34.12-75.865-75.841-75.865v0h-18.966c-10.412 0-18.966 8.554-18.966 18.966v0 189.637c0 10.412 8.554 18.966 18.966 18.966v0zM720.596 334.236c10.436 0 18.966-8.554 18.966-18.966v-189.637c0-10.412-8.53-18.966-18.966-18.966h-18.966c-41.721 0-75.841 34.144-75.841 75.865v75.84c0 41.721 34.12 75.865 75.841 75.865h18.966zM512.012 789.333c188.197 0 341.321-153.122 341.321-341.317v0-322.376c0-10.436-8.53-18.966-18.966-18.966v0h-37.908c-10.436 0-18.966 8.53-18.966 18.966v0 322.376c0 146.377-119.102 265.453-265.48 265.453-146.403 0-265.48-119.076-265.48-265.453v0-322.376c0-10.436-8.53-18.966-18.966-18.966v0h-37.933c-10.412 0-18.966 8.53-18.966 18.966v0 322.376c0 188.195 153.124 341.317 341.346 341.317z" />
<glyph unicode="&#xe934;" glyph-name="heart" d="M797.792 428.715c74.055 72.708 74.055 190.721 0 263.454-74.007 72.684-194.133 72.66-268.139-0.048-6.526-6.376-12.269-13.257-17.622-20.306-5.377 7.074-11.145 13.931-17.671 20.355-74.007 72.684-194.133 72.66-268.139-0.048-74.080-72.757-74.055-190.697-0.024-263.382l284.466-279.405 287.13 279.381z" />
<glyph unicode="&#xe935;" glyph-name="history" d="M511.988 789.333c94.123 0 179.472-38.276 241.259-100.090 61.812-61.79 100.087-147.166 100.087-241.243 0-188.228-153.1-341.333-341.346-341.333-92.73 0-178.616 37.787-241.137 100.188v0l53.575 53.577c48.638-48.517 115.436-77.921 187.562-77.921 146.403 0 265.505 119.106 265.505 265.49 0 73.204-29.794 139.564-77.87 187.642-48.076 48.053-114.434 77.848-187.635 77.848-80.998 0-156.008-36.908-205.648-97.744v0l91.899-91.902h-227.572v227.556l81.731-81.71c63.816 74.695 158.086 119.644 259.59 119.644zM511.995 637.639v-151.712h75.865v-75.868h-151.706v227.58h75.841z" />
<glyph unicode="&#xe936;" glyph-name="home-narrow" d="M512 746.667l-298.667-298.667h74.655v-298.667h149.333v112.018c0 41.237 33.442 74.655 74.679 74.655s74.679-33.418 74.679-74.655v-112.018h149.309v298.667h74.679l-298.667 298.667z" />
<glyph unicode="&#xe937;" glyph-name="home-wide" d="M819.188 448v111.994h-115.194l-192.006 186.673-383.988-373.345h76.788v-223.988h230.412v186.673h153.575v-186.673h230.412v223.988h76.812z" />
<glyph unicode="&#xe938;" glyph-name="image" d="M838.389 746.667c31.775 0 57.611-25.117 57.611-56.009v0-485.315c0-30.892-25.836-56.009-57.611-56.009v0h-652.802c-31.75 0-57.586 25.117-57.586 56.009v0 485.315c0 30.892 25.836 56.009 57.586 56.009v0zM819.185 671.988h-614.395v-447.976l178.426 173.464c7.449 7.242 19.699 7.242 27.148 0v0l63.229-61.47 345.593 335.982zM350.919 586.656c33.593 0 60.812-26.834 60.812-59.984s-27.219-60.010-60.812-60.010c-33.593 0-60.812 26.86-60.812 60.010s27.219 59.984 60.812 59.984z" />
<glyph unicode="&#xe939;" glyph-name="instagram" d="M552.080 789.306c57.183-0.127 70.297-0.625 100.626-2.012 36.352-1.664 61.141-7.424 82.859-15.872 22.443-8.747 41.472-20.395 60.459-39.381s30.635-37.973 39.381-60.459c8.448-21.717 14.208-46.507 15.872-82.859 0.347-7.582 0.638-14.089 0.881-20.476l0.27-7.67c0.58-18.050 0.813-38.175 0.877-81.395v-62.333c-0.060-40.121-0.265-60.348-0.758-77.491l-0.249-7.755c-0.27-7.658-0.606-15.21-1.022-24.309-1.664-36.352-7.424-61.184-15.872-82.859-8.747-22.485-20.395-41.472-39.381-60.459s-38.016-30.677-60.459-39.381c-21.717-8.448-46.507-14.208-82.859-15.872-31.845-1.456-44.711-1.932-109.542-2.028h-62.346c-40.134 0.060-60.355 0.265-77.501 0.758l-7.756 0.249c-7.661 0.27-15.218 0.606-24.327 1.022-36.309 1.664-61.141 7.424-82.816 15.872-22.443 8.704-41.515 20.395-60.459 39.381-18.987 18.987-30.677 37.973-39.381 60.459-8.448 21.675-14.208 46.507-15.872 82.859-1.387 30.329-1.884 43.473-2.012 100.641v80.162c0.127 57.183 0.625 70.297 2.012 100.626 1.664 36.352 7.424 61.141 15.872 82.859 8.704 22.485 20.395 41.472 39.381 60.459 18.944 18.987 38.016 30.635 60.459 39.381 21.675 8.448 46.507 14.208 82.816 15.872 30.364 1.387 43.484 1.884 100.669 2.012zM533.163 727.851h-42.343c-49.049-0.044-70.151-0.265-89.077-0.873l-7.515-0.264c-6.268-0.238-12.676-0.522-20.178-0.86-33.28-1.536-51.328-7.083-63.36-11.776-15.957-6.187-27.307-13.568-39.253-25.515s-19.371-23.296-25.557-39.253c-4.651-12.032-10.197-30.080-11.733-63.36-0.277-6.002-0.518-11.303-0.726-16.393l-0.416-11.3c-0.61-18.926-0.815-40.028-0.855-89.077v-42.343c0.040-49.049 0.245-70.151 0.855-89.077l0.266-7.515c0.241-6.268 0.53-12.676 0.877-20.178 1.536-33.28 7.083-51.371 11.733-63.36 6.187-15.957 13.611-27.307 25.557-39.253s23.296-19.328 39.253-25.515c12.032-4.693 30.080-10.24 63.36-11.776 31.509-1.419 43.713-1.89 107.325-1.986h61.232c63.612 0.096 75.816 0.567 107.325 1.986 33.237 1.536 51.328 7.083 63.36 11.776 15.957 6.187 27.307 13.568 39.253 25.515s19.328 23.296 25.557 39.253c4.651 11.989 10.197 30.080 11.733 63.36 1.351 30.009 1.813 42.507 1.93 98.58v78.723c-0.117 56.073-0.579 68.571-1.93 98.58-1.536 33.28-7.083 51.328-11.733 63.36-6.229 15.957-13.611 27.307-25.557 39.253s-23.296 19.328-39.253 25.515c-12.032 4.693-30.123 10.24-63.36 11.776-7.502 0.338-13.91 0.622-20.178 0.86l-7.515 0.264c-18.926 0.608-40.028 0.829-89.077 0.873zM511.983 623.258c96.811 0 175.275-78.421 175.275-175.232 0-96.853-78.464-175.275-175.275-175.275s-175.275 78.421-175.275 175.275c0 96.811 78.464 175.232 175.275 175.232zM511.983 561.775c-62.848 0-113.792-50.944-113.792-113.749 0-62.848 50.944-113.792 113.792-113.792s113.792 50.944 113.792 113.792c0 62.805-50.944 113.749-113.792 113.749zM694.191 671.172c22.613 0 40.96-18.347 40.96-40.96s-18.347-40.96-40.96-40.96c-22.613 0-40.96 18.347-40.96 40.96s18.347 40.96 40.96 40.96z" />
<glyph unicode="&#xe93a;" glyph-name="comments" d="M660.816 478.925h-535.352c-23.19 0-40.585 19.328-40.585 40.585v156.548l-81.174 121.759c-3.867 5.799-3.867 13.528-1.933 19.328 3.867 5.799 9.663 9.663 17.395 9.663h65.713v61.846c0 23.19 17.395 40.585 40.585 40.585h535.352c23.19 0 40.585-19.328 40.585-40.585v-371.075c0-19.328-17.395-38.653-40.585-38.653zM55.884 790.085l63.78-96.636c1.933-3.867 3.867-7.73 3.867-11.596v-162.346c0-1.933 0-1.933 1.933-1.933h535.352c0 0 1.933 0 1.933 1.933v373.008c0 1.933 0 1.933-1.933 1.933h-535.352c0 0-1.933 0-1.933-1.933v-81.174c0-11.596-9.663-19.328-19.328-19.328h-48.319zM898.536-33.238h-535.352c-23.19 0-40.585 19.328-40.585 40.585v371.075c0 23.19 17.395 40.585 40.585 40.585h535.352c23.19 0 40.585-19.328 40.585-40.585v-156.548l81.174-121.759c3.867-5.799 3.867-13.528 1.933-19.328-3.867-5.799-9.663-9.663-17.395-9.663h-65.713v-61.846c0-25.124-17.395-42.518-40.585-42.518zM363.184 380.356c0 0-1.933 0-1.933-1.933v-371.075c0-1.933 0-1.933 1.933-1.933h535.352c0 0 1.933 0 1.933 1.933v81.174c0 11.596 9.663 19.328 19.328 19.328h48.319l-63.78 96.636c-1.933 3.867-3.867 7.73-3.867 11.596v162.346c0 1.933 0 1.933-1.933 1.933h-535.352zM801.904 78.859h-345.951c-11.596 0-19.328 9.663-19.328 19.328s9.663 19.328 19.328 19.328h345.951c11.596 0 19.328-9.663 19.328-19.328s-7.73-19.328-19.328-19.328zM801.904 175.492h-345.951c-11.596 0-19.328 9.663-19.328 19.328s9.663 19.328 19.328 19.328h345.951c11.596 0 19.328-9.663 19.328-19.328s-7.73-19.328-19.328-19.328zM801.904 268.262h-345.951c-11.596 0-19.328 9.663-19.328 19.328s9.663 19.328 19.328 19.328h345.951c11.596 0 19.328-9.663 19.328-19.328s-7.73-19.328-19.328-19.328zM560.317 589.088h-347.883c-11.596 0-19.328 9.663-19.328 19.328s9.663 19.328 19.328 19.328h345.951c11.596 0 19.328-9.663 19.328-19.328s-7.73-19.328-17.395-19.328zM560.317 687.654h-347.883c-11.596 0-19.328 9.663-19.328 19.328s9.663 19.328 19.328 19.328h345.951c11.596 0 19.328-9.663 19.328-19.328s-7.73-19.328-17.395-19.328zM560.317 780.422h-347.883c-11.596 0-19.328 9.663-19.328 19.328s9.663 19.328 19.328 19.328h345.951c11.596 0 19.328-9.663 19.328-19.328s-7.73-19.328-17.395-19.328z" />
<glyph unicode="&#xe93b;" glyph-name="link-away" d="M853.333 481.187l-303.413 265.48v-155.275c-379.254-91.092-379.254-527.392-379.254-527.392s132.007 306.688 379.254 306.688v-154.982l303.413 265.48z" />
<glyph unicode="&#xe93c;" glyph-name="link" d="M389.64 513.228l57.487-57.507-186.812-186.936 114.947-115.039 186.786 186.936 57.487-57.507-201.164-201.326c-11.497-11.507-26.792-17.85-43.109-17.85-16.29 0-31.611 6.343-43.109 17.85v0l-143.678 143.793c-11.497 11.507-17.809 26.84-17.809 43.143s6.312 31.637 17.809 43.143v0l201.164 201.299zM626.517 577.733l57.461-57.507-243.854-244.049-57.461 57.533 243.854 244.023zM648.27 772.073c22.995 23.013 63.222 23.013 86.217 0v0l143.678-143.793c11.497-11.507 17.835-26.814 17.835-43.143s-6.338-31.637-17.835-43.143v0l-201.19-201.299-57.434 57.507 186.786 186.936-114.947 115.039-186.786-186.962-57.461 57.533z" />
<glyph unicode="&#xe93d;" glyph-name="linkedin" d="M325.645 577.011v-440.192h-146.389v440.192h146.389zM684.813 587.354c96.256 0 168.491-62.891 168.491-198.144v0-252.373h-146.304v235.52c0 59.136-21.205 99.584-74.197 99.584-40.363 0-64.469-27.349-75.093-53.589-3.84-9.429-4.821-22.443-4.821-35.669v0-245.845h-146.304l0.019 4.145c0.004 0.903 0.009 1.947 0.014 3.127l0.038 8.654c0.14 32.243 0.454 108.981 0.633 188.697l0.051 25.224 0.040 25.132c0.006 4.165 0.011 8.314 0.015 12.44l-0.009 81.351c-0.079 45.787-0.314 80.693-0.802 91.42v0h146.304v-62.336c19.499 30.037 54.272 72.661 131.925 72.661zM253.397 789.333c50.091 0 80.896-32.896 81.835-76.117 0-42.197-31.744-76.075-82.773-76.075v0h-0.981c-49.067 0-80.811 33.877-80.811 76.075 0 43.221 32.725 76.117 82.731 76.117z" />
<glyph unicode="&#xe93e;" glyph-name="lock" d="M399.989 524.8v115.194c0 63.524 50.237 115.194 111.998 115.194s112.023-51.67 112.023-115.194v-115.194h-224.021zM511.988 275.209c-30.917 0-55.987 25.786-55.987 57.585 0 31.824 25.070 57.609 55.987 57.609 30.941 0 56.011-25.786 56.011-57.609 0-31.799-25.070-57.585-56.011-57.585v0zM791.996 524.8h-93.328v115.194c0 105.864-83.752 192.006-186.68 192.006s-186.68-86.142-186.68-192.006v-115.194h-93.304c-10.274 0-18.67-8.661-18.67-19.203v-134.397c0-169.66 133.7-307.2 298.655-307.2s298.679 137.54 298.679 307.2v134.397c0 10.542-8.397 19.203-18.67 19.203v0z" />
<glyph unicode="&#xe93f;" glyph-name="microphone-mute" d="M226.094 779.602l627.239-648.53-55.428-57.338-121.896 126.039c-35.874-27.82-78.443-46.68-124.801-53.602v0-43.78l78.392-81.056h-235.202l78.392 81.056v43.78c-132.759 19.774-235.202 137.846-235.202 280.498v0h78.417c0-111.75 87.917-202.68 195.993-202.68 39.891 0 76.952 12.486 107.925 33.75v0l-57.424 59.375c-15.335-7.628-32.413-12.042-50.501-12.042-64.674 0-117.601 54.726-117.601 121.598v0 64.286l-223.732 231.31 55.428 57.338zM786.416 426.671c0-41.194-8.716-80.247-24.051-115.59v0l-61.213 63.294c4.32 16.718 6.846 34.194 6.846 52.296v0zM512.003 832c64.674 0 117.601-54.699 117.601-121.598v0-262.030l-235.202 243.196v18.834c0 66.898 52.927 121.598 117.601 121.598z" />
<glyph unicode="&#xe940;" glyph-name="microphone-on" d="M298.655 448.004c0-117.632 95.715-213.349 213.345-213.349s213.345 95.717 213.345 213.349v0h85.322c0-150.161-111.498-274.447-255.992-295.263v0-46.085l85.322-85.323h-255.992l85.322 85.323v46.085c-144.466 20.815-255.992 145.102-255.992 295.263v0zM512.005 874.667c70.391 0 127.996-57.579 127.996-127.998v0-298.672c0-70.392-57.605-127.998-127.996-127.998s-127.996 57.606-127.996 127.998v0 298.672c0 70.42 57.605 127.998 127.996 127.998z" />
<glyph unicode="&#xe941;" glyph-name="more-horizontal" d="M341.333 448c0-46.928-38.384-85.333-85.347-85.333-46.935 0-85.32 38.405-85.32 85.333s38.384 85.333 85.32 85.333c46.963 0 85.347-38.405 85.347-85.333zM597.333 448c0-46.928-38.384-85.333-85.347-85.333-46.935 0-85.32 38.405-85.32 85.333s38.384 85.333 85.32 85.333c46.963 0 85.347-38.405 85.347-85.333zM853.333 448c0-46.928-38.384-85.333-85.347-85.333-46.935 0-85.32 38.405-85.32 85.333s38.384 85.333 85.32 85.333c46.963 0 85.347-38.405 85.347-85.333z" />
<glyph unicode="&#xe942;" glyph-name="more-vertical" d="M512 277.333c46.928 0 85.333-38.384 85.333-85.347 0-46.935-38.405-85.32-85.333-85.32s-85.333 38.384-85.333 85.32c0 46.963 38.405 85.347 85.333 85.347zM512 533.333c46.928 0 85.333-38.384 85.333-85.347 0-46.935-38.405-85.32-85.333-85.32s-85.333 38.384-85.333 85.32c0 46.963 38.405 85.347 85.333 85.347zM512 789.333c46.928 0 85.333-38.384 85.333-85.347 0-46.935-38.405-85.32-85.333-85.32s-85.333 38.384-85.333 85.32c0 46.963 38.405 85.347 85.333 85.347z" />
<glyph unicode="&#xe943;" glyph-name="account-circle" d="M512 960c-282.624 0-512-229.376-512-512s229.376-512 512-512c282.624 0 512 229.376 512 512s-229.376 512-512 512v0zM512 806.4c84.992 0 153.6-68.608 153.6-153.6s-68.608-153.6-153.6-153.6c-84.992 0-153.6 68.608-153.6 153.6s68.608 153.6 153.6 153.6v0zM512 79.36c-128 0-241.152 65.536-307.2 164.864 1.536 101.888 204.8 157.695 307.2 157.695 101.888 0 305.664-55.808 307.2-157.695-66.048-99.328-179.199-164.864-307.2-164.864v0z" />
<glyph unicode="&#xe944;" glyph-name="pause" d="M392.889 746.667c10.737 0 19.559-8.421 19.559-18.67v-559.994c0-10.249-8.822-18.67-19.559-18.67h-117.33c-10.763 0-19.559 8.421-19.559 18.67v559.994c0 10.249 8.797 18.67 19.559 18.67h117.33zM748.441 746.667c10.763 0 19.559-8.421 19.559-18.67v-559.994c0-10.249-8.797-18.67-19.559-18.67h-117.33c-10.737 0-19.559 8.421-19.559 18.67v559.994c0 10.249 8.822 18.67 19.559 18.67h117.33z" />
<glyph unicode="&#xe945;" glyph-name="magnify" d="M961.423-64l-374.044 374.044c-28.444-24.652-61.629-43.852-99.556-57.6s-78.223-20.623-120.889-20.623c-102.4 0-189.156 35.556-260.267 106.667s-106.667 156.919-106.667 257.423c0 100.504 35.556 186.311 106.667 257.423s157.392 106.667 258.844 106.667c100.504 0 186.075-35.556 256.711-106.667s105.956-156.919 105.956-257.423c0-40.771-6.637-80.119-19.911-118.044s-33.185-73.481-59.733-106.667l375.467-372.623-62.577-62.577zM365.511 317.156c76.8 0 142.223 27.259 196.267 81.777s81.067 120.177 81.067 196.977c0 76.8-27.023 142.459-81.067 196.977s-119.467 81.777-196.267 81.777c-77.748 0-143.881-27.259-198.4-81.777s-81.777-120.177-81.777-196.977c0-76.8 27.259-142.459 81.777-196.977s120.652-81.777 198.4-81.777v0z" />
<glyph unicode="&#xe946;" glyph-name="phone" d="M809.364 334.85c-4.228 1.002-8.603 1.638-13.125 1.638-0.196 0-0.367-0.049-0.587-0.049-64.598 8.114-125.017 29.672-178.323 61.885l-82.636-84.469c-61.079 41.183-114.018 96.225-155.202 153.1v0l82.758 84.493c-32.238 53.306-53.722 114.678-61.861 179.276 0 0.22 0.098 0.855 0.098 1.051 0 4.522-0.66 9.141-1.662 13.369-5.939 25.15-28.401 44.19-55.408 44.19h-115.68c-31.040 0-56.215-24.832-56.948-55.726 0-0.44-0.122-0.904-0.122-1.369 0-3.324 0.415-6.526 0.953-9.679 11.927-124.381 56.875-238.595 125.823-334.209 43.016-59.612 95.394-111.941 155.006-154.908 95.712-68.997 209.95-113.847 333.964-125.799 3.202-0.562 6.477-0.978 9.825-0.978 0.464 0 0.929 0.122 1.418 0.147 30.869 0.758 55.677 25.883 55.677 56.924v115.68c0 26.983-18.795 49.493-43.97 55.433z" />
<glyph unicode="&#xe947;" glyph-name="pin" d="M497.223 423.016c-54.861 0-99.302 42.127-99.302 94.076s44.442 94.1 99.302 94.1c54.861 0 99.302-42.151 99.302-94.1s-44.442-94.076-99.302-94.076zM721.94 726.707c-124.109 121.942-325.325 121.942-449.408 0-124.134-121.942-124.134-319.698 0-441.616l224.691-219.608 224.717 219.608c124.109 121.918 124.109 319.674 0 441.616z" />
<glyph unicode="&#xe948;" glyph-name="pinterest" d="M536.235 789.333c-186.325 0-280.235-133.547-280.235-244.949 0-67.456 25.472-127.445 80.256-149.803 8.96-3.669 17.067-0.128 19.627 9.813 1.835 6.869 6.101 24.235 8.021 31.488 2.603 9.813 1.621 13.269-5.632 21.845-15.787 18.645-25.856 42.709-25.856 76.885 0 99.115 74.112 187.819 193.024 187.819 105.301 0 163.157-64.341 163.157-150.272 0-113.067-50.048-208.512-124.331-208.512-41.045 0-71.68 33.963-61.867 75.563 11.776 49.664 34.603 103.253 34.603 139.136 0 32.085-17.195 58.88-52.864 58.88-41.941 0-75.648-43.392-75.648-101.504 0-37.035 12.544-62.037 12.544-62.037s-42.923-181.845-50.475-213.675c-14.976-63.445-2.261-141.184-1.152-149.035 0.597-4.651 6.613-5.76 9.344-2.219 3.797 5.035 53.76 66.688 70.784 128.299 4.779 17.451 27.563 107.819 27.563 107.819 13.653-26.027 53.461-48.896 95.787-48.896 126.037 0 211.584 114.901 211.584 268.715 0 116.309-98.517 224.64-248.235 224.64z" />
<glyph unicode="&#xe949;" glyph-name="play" d="M762.713 460.983l-1.959 1.411-394.167 282.862c-2.148 0.909-4.461 1.411-6.939 1.411-10.101 0-18.315-8.297-18.315-18.555v-560.224c0-10.258 8.213-18.555 18.315-18.555 2.478 0 4.791 0.526 6.939 1.411l396.126 284.273c3.233 3.347 5.287 7.914 5.287 12.983s-2.053 9.636-5.287 12.983z" />
<glyph unicode="&#xe94a;" glyph-name="plus" d="M853.333 485.92h-303.413v303.413h-75.841v-303.413h-303.413v-75.865h303.413v-303.388h75.841v303.388h303.413z" />
<glyph unicode="&#xe94b;" glyph-name="printer" d="M701.627 258.373v-151.706h-379.254v151.706h379.254zM682.661 789.333c10.436 0 18.966-8.53 18.966-18.966v0-208.581h132.74c10.436 0 18.966-8.53 18.966-18.966v0-341.321c0-10.436-8.53-18.966-18.966-18.966v0h-94.807v94.807c0 10.412-8.554 18.942-18.966 18.942v0h-417.187c-10.412 0-18.966-8.53-18.966-18.942v0-94.807h-94.807c-10.436 0-18.966 8.53-18.966 18.966v0 341.321c0 10.436 8.53 18.966 18.966 18.966v0h132.74v208.581c0 10.436 8.53 18.966 18.966 18.966v0zM777.468 485.945h-75.865v-37.933h75.865v37.933zM663.694 751.401h-303.413v-189.615h303.413v189.615z" />
<glyph unicode="&#xe94c;" glyph-name="refresh" d="M398.215 329.48l-91.875-91.899c49.665-60.81 124.626-97.74 205.649-97.74 73.202 0 139.56 29.794 187.636 77.87 30.772 30.747 53.893 69.046 66.676 111.77v0h78.237c-14.518-63.669-46.634-120.739-91.288-165.393-61.788-61.836-147.136-100.087-241.26-100.087-101.505 0-195.775 44.972-259.615 119.615v0l-81.707-81.682v227.547h227.548zM511.987 746.667c101.529 0 195.799-44.972 259.64-119.64v0l81.707 81.707v-227.547h-227.548l91.875 91.899c-49.665 60.81-124.626 97.74-205.673 97.74-73.177 0-139.535-29.794-187.611-77.87-31.040-31.016-54.284-68.655-66.969-111.77v0h-78.017c14.469 63.865 46.634 120.666 91.361 165.393 61.788 61.812 147.136 100.087 241.235 100.087z" />
<glyph unicode="&#xe94d;" glyph-name="repeat" d="M853.333 490.657c0-164.677-119.103-298.668-265.482-298.668v0h-189.616v-85.322l-113.775 127.997 113.775 127.997v-85.322h189.616c104.56 0 189.64 95.688 189.64 213.319v0zM625.789 789.333l113.775-127.997-113.775-128.024v85.349h-189.64c-104.56 0-189.616-95.688-189.616-213.319v0h-75.866c0 164.677 119.103 298.668 265.482 298.668v0h189.64v85.322z" />
<glyph unicode="&#xe94e;" glyph-name="return" d="M646.401 661.335h-364.796v127.998l-153.605-170.646 153.605-170.674v127.998h364.796c95.301 0 172.809-86.12 172.809-192.011s-77.508-192.011-172.809-192.011h-364.796v-85.323h364.796c137.643 0 249.599 124.424 249.599 277.334 0 152.938-111.956 277.334-249.599 277.334z" />
<glyph unicode="&#xe94f;" glyph-name="play-cutout" d="M512-64c-282.769 0-512 229.231-512 512s229.231 512 512 512c282.769 0 512-229.231 512-512s-229.231-512-512-512zM391.461 255.714l343.074 199.929-344.68 197.148 1.606-397.077z" />
<glyph unicode="&#xe950;" glyph-name="rotate-clockwise" d="M853.333 481.187h-227.547l91.874 91.899c-49.664 60.834-124.626 97.74-205.648 97.74-73.177 0-139.559-29.769-187.635-77.87-48.076-48.076-77.845-114.434-77.845-187.611 0-146.403 119.102-265.48 265.48-265.48 72.15 0 138.948 29.403 187.537 77.894l53.6-53.575c-62.521-62.349-148.407-100.184-241.137-100.184-188.246 0-341.346 153.124-341.346 341.346 0 94.099 38.299 179.447 100.087 241.234 61.812 61.812 147.136 100.087 241.259 100.087 101.504 0 195.774-44.972 259.614-119.64l81.707 81.731v-227.572z" />
<glyph unicode="&#xe951;" glyph-name="rotate-counter-clockwise" d="M170.667 523.853h227.547l-91.874 91.899c49.664 60.834 124.626 97.74 205.648 97.74 73.177 0 139.559-29.769 187.635-77.87 48.076-48.076 77.845-114.434 77.845-187.611 0-146.403-119.102-265.48-265.48-265.48-72.15 0-138.948 29.403-187.537 77.894l-53.6-53.575c62.521-62.349 148.407-100.184 241.137-100.184 188.246 0 341.346 153.124 341.346 341.346 0 94.099-38.299 179.447-100.087 241.234-61.812 61.812-147.136 100.087-241.259 100.087-101.504 0-195.774-44.972-259.614-119.64l-81.707 81.731v-227.572z" />
<glyph unicode="&#xe952;" glyph-name="link-external" d="M910.222 49.778h-796.444v796.444h398.222v113.778h-398.222c-63.147 0-113.778-51.2-113.778-113.778v-796.444c0-62.578 50.631-113.778 113.778-113.778h796.444c62.578 0 113.778 51.2 113.778 113.778v398.222h-113.778v-398.222zM625.778 960v-113.778h204.231l-559.218-559.218 80.213-80.213 559.218 559.218v-204.231h113.778v398.222h-398.222z" />
<glyph unicode="&#xe953;" glyph-name="search" d="M246.532 485.92c0 125.481 102.066 227.547 227.547 227.547s227.572-102.066 227.572-227.547c0-125.481-102.091-227.572-227.572-227.572s-227.547 102.091-227.547 227.572v0zM853.333 160.291l-139.877 139.877c39.986 51.375 64.036 115.753 64.036 185.753 0 167.3-136.113 303.413-303.413 303.413s-303.413-136.113-303.413-303.413c0-167.3 136.113-303.413 303.413-303.413 70 0 134.353 24.075 185.753 64.036l139.877-139.877 53.624 53.624z" />
<glyph unicode="&#xe954;" glyph-name="send" d="M896 448l-768 341.333 57.609-255.986 383.988-85.347-383.988-85.347-57.609-255.986z" />
<glyph unicode="&#xe955;" glyph-name="share" d="M698.668 163.541c-30.917 0-56.011 25.468-56.011 56.899 0 31.407 25.094 56.875 56.011 56.875s56.011-25.468 56.011-56.875c0-31.431-25.094-56.899-56.011-56.899zM325.332 391.113c-30.941 0-56.011 25.468-56.011 56.875s25.070 56.899 56.011 56.899c30.917 0 56.011-25.492 56.011-56.899s-25.094-56.875-56.011-56.875zM698.668 732.434c30.917 0 56.011-25.492 56.011-56.899s-25.094-56.875-56.011-56.875c-30.917 0-56.011 25.468-56.011 56.875s25.094 56.899 56.011 56.899zM698.668 334.214c-27.091 0-51.969-9.801-71.337-26.079l-192.238 117.171c1.468 7.332 2.238 14.934 2.238 22.681 0 7.772-0.77 15.349-2.238 22.681l192.238 117.171c19.368-16.278 44.246-26.079 71.337-26.079 61.858 0 111.998 50.935 111.998 113.774s-50.141 113.798-111.998 113.798c-61.858 0-111.998-50.96-111.998-113.798 0-7.748 0.77-15.349 2.238-22.681l-192.238-117.147c-19.368 16.278-44.246 26.054-71.337 26.054-61.858 0-111.998-50.935-111.998-113.774s50.141-113.774 111.998-113.774c27.091 0 51.969 9.801 71.337 26.079l192.238-117.171c-1.468-7.332-2.238-14.934-2.238-22.681 0-62.838 50.141-113.774 111.998-113.774s111.998 50.935 111.998 113.774c0 62.814-50.141 113.774-111.998 113.774z" />
<glyph unicode="&#xe956;" glyph-name="testimonial-quote" horiz-adv-x="1399" d="M16.513-35.947c-5.001 32.509-7.502 65.019-7.502 97.528s0 58.767 0 78.773c5.001 150.043 34.385 293.834 88.15 431.373s119.409 261.325 196.931 371.356l333.846-90.026c-50.014-110.031-88.775-226.315-116.283-348.85s-41.262-238.818-41.262-348.85c0-20.006 0-48.764 0-86.275s2.501-72.521 7.502-105.030h-461.382zM770.479-35.947c-5.001 32.509-7.502 65.019-7.502 97.528s0 58.767 0 78.773c5.001 150.043 34.385 293.834 88.15 431.373s119.409 261.325 196.931 371.356l333.846-90.026c-50.014-110.031-88.775-226.315-116.283-348.85s-41.262-238.818-41.262-348.85c0-20.006 0-48.764 0-86.275s2.501-72.521 7.502-105.030h-461.382z" />
<glyph unicode="&#xe957;" glyph-name="shuffle" d="M562.724 396.614l34.56-52.329c15.74-23.891 56.435-45.616 85.374-45.616v0h56.9v74.68l113.775-112.020-113.775-111.996v74.656h-56.9c-54.993 0-119.055 34.236-148.971 79.612v0l-16.205 24.516 45.241 68.497zM739.568 746.667l113.751-111.996-113.751-112.020v74.68h-56.9c-28.939 0-69.634-21.725-85.399-45.616v0l-163.832-248.123c-29.965-45.376-94.002-79.588-148.996-79.588v0h-113.775v74.656h113.775c28.939 0 69.634 21.75 85.399 45.616v0l163.832 248.123c29.941 45.376 94.002 79.612 148.996 79.612v0h56.9v74.656zM284.447 671.999c54.945 0 119.030-34.212 148.996-79.588v0l16.18-24.54-45.217-68.497-34.56 52.353c-15.789 23.867-56.484 45.616-85.399 45.616v0h-113.775v74.656z" />
<glyph unicode="&#xe958;" glyph-name="sales" d="M875.033 175.849c0 0 0 0 0 0-52.478 0-93.972 41.494-93.972 92.751s42.714 92.751 93.972 92.751 93.972-41.494 93.972-92.751c0-51.258-42.714-92.751-93.972-92.751zM875.033 324.739c-31.73 0-57.36-25.628-57.36-56.138 0-31.73 25.628-56.138 57.36-56.138s57.36 25.628 57.36 56.138c0 30.51-25.628 56.138-57.36 56.138zM994.633-27.959h-240.421c-17.086 0-30.51 13.424-30.51 30.51v58.58c0 48.816 40.274 89.090 90.31 89.090h119.6c50.036 0 90.31-40.274 90.31-89.090v-58.58c1.22-17.086-12.204-30.51-29.29-30.51zM760.314 8.653h228.217v52.478c0 29.29-24.408 52.478-53.698 52.478h-119.6c-29.29 0-53.698-24.408-53.698-52.478v-52.478zM512.572 175.849c0 0 0 0 0 0-52.478 0-93.972 41.494-93.972 92.751s42.714 92.751 93.972 92.751 93.972-41.494 93.972-92.751c0-51.258-41.494-92.751-93.972-92.751zM512.572 324.739c-31.73 0-57.36-25.628-57.36-56.138 0-31.73 25.628-56.138 57.36-56.138s57.36 25.628 57.36 56.138c0 30.51-25.628 56.138-57.36 56.138zM632.172-27.959h-239.2c-17.086 0-30.51 13.424-30.51 30.51v58.58c0 48.816 40.274 89.090 90.31 89.090h119.6c50.036 0 90.31-40.274 90.31-89.090v-58.58c0-17.086-13.424-30.51-30.51-30.51zM399.073 8.653h228.217v52.478c0 29.29-24.408 52.478-53.698 52.478h-119.6c-29.29 0-53.698-24.408-53.698-52.478v-52.478zM920.188 487.053h-815.233c-9.764 0-18.306 8.542-18.306 18.306v400.294c0 9.764 8.542 18.306 18.306 18.306h815.233c9.764 0 18.306-8.542 18.306-18.306v-400.294c0-9.764-8.542-18.306-18.306-18.306zM123.261 523.666h778.62v363.681h-778.62v-363.681zM151.331 175.849c0 0 0 0 0 0-52.478 0-93.972 41.494-93.972 92.751s42.714 92.751 93.972 92.751 93.972-41.494 93.972-92.751c0-51.258-42.714-92.751-93.972-92.751zM150.11 324.739c-31.73 0-57.36-25.628-57.36-56.138 0-31.73 25.628-56.138 57.36-56.138s57.36 25.628 57.36 56.138c1.22 30.51-24.408 56.138-57.36 56.138zM270.931-27.959h-240.421c-17.086 0-30.51 13.424-30.51 30.51v58.58c0 48.816 40.274 89.090 90.31 89.090h119.6c50.036 0 90.31-40.274 90.31-89.090v-58.58c1.22-17.086-12.204-30.51-29.29-30.51zM36.612 8.653h228.217v52.478c0 29.29-24.408 52.478-53.698 52.478h-120.82c-29.29 0-53.698-24.408-53.698-52.478v-52.478zM668.784 607.874h-461.315c-9.764 0-18.306 8.542-18.306 18.306s8.542 18.306 18.306 18.306h462.535c9.764 0 18.306-8.542 18.306-18.306s-8.542-18.306-19.526-18.306zM722.482 687.2h-515.012c-9.764 0-18.306 8.542-18.306 18.306s8.542 18.306 18.306 18.306h515.012c9.764 0 18.306-8.542 18.306-18.306s-8.542-18.306-18.306-18.306zM818.894 766.527h-611.424c-9.764 0-18.306 8.542-18.306 18.306s8.542 18.306 18.306 18.306h611.424c9.764 0 18.306-8.542 18.306-18.306s-8.542-18.306-18.306-18.306z" />
<glyph unicode="&#xe959;" glyph-name="star" d="M512 789.333l94.811-265.48h246.523l-208.589-151.706 78.215-265.48-210.959 151.706-210.959-151.706 78.215 265.48-208.589 151.706h246.523z" />
<glyph unicode="&#xe95a;" glyph-name="stopwatch" d="M561.786 960l99.543-102.385h-99.543v-105.952c72.531-9.375 138.93-38.872 194.015-82.915v0l69.45 71.466 70.377-72.424-69.478-71.438c52.512-69.354 84.074-156.266 84.074-250.735 0-225.859-178.648-409.615-398.225-409.615s-398.225 183.757-398.225 409.615c0 208.472 152.306 380.704 348.439 406.048v0 105.952h-99.543l99.543 102.385h99.57zM512.002 652.808c-164.694 0-298.655-137.824-298.655-307.192 0-169.439 133.961-307.231 298.655-307.231s298.682 137.792 298.682 307.231c0 169.373-133.989 307.192-298.682 307.192zM561.762 550.397l0.019-116.090c29.752-17.711 49.773-50.808 49.773-88.707 0-56.552-44.586-102.423-99.57-102.423-54.947 0-99.543 45.861-99.543 102.423 0 37.871 20 70.947 49.705 88.672l0.035 116.128h99.57z" />
<glyph unicode="&#xe95b;" glyph-name="tick-circle" d="M511.988 746.667c188.197 0 341.346-153.124 341.346-341.321s-153.148-341.346-341.346-341.346c-188.197 0-341.321 153.148-341.321 341.346s153.124 341.321 341.321 341.321zM511.988 670.826c-146.378 0-265.48-119.102-265.48-265.48s119.102-265.48 265.48-265.48c146.403 0 265.48 119.102 265.48 265.48s-119.077 265.48-265.48 265.48zM598.942 508.013l53.648-53.624-178.518-178.518-102.677 102.653 53.648 53.624 49.029-49.029 124.87 124.894z" />
<glyph unicode="&#xe95c;" glyph-name="tick" d="M407.184 192l-236.517 242.247 53.893 55.137 182.625-187.035 392.257 401.651 53.893-55.187z" />
<glyph unicode="&#xe95d;" glyph-name="trolley" d="M370.693 163.56c62.992 0 114.074-50.96 114.074-113.799 0-62.803-51.083-113.761-114.074-113.761s-114.074 50.96-114.074 113.761c0 62.837 51.083 113.799 114.074 113.799zM798.38 163.56c62.992 0 114.074-50.96 114.074-113.799 0-62.803-51.083-113.761-114.074-113.761s-114.074 50.96-114.074 113.761c0 62.837 51.083 113.799 114.074 113.799zM142.594 959.998c40.72 0 79.199-28.122 91.472-66.836v0l14.995-46.928h713.288c21.647 0 41.27-10.74 52.514-28.669 11.17-18.002 12.165-40.289 2.609-59.684v0l-164.897-328.968c-11.1-22.475-35.831-37.796-61.299-37.796v0h-397.016l18.118-56.899h500.064v-113.761h-513.219c-40.755 0-79.234 28.122-91.508 66.836v0l-178.312 558.946h-129.398v113.761z" />
<glyph unicode="&#xe95e;" glyph-name="support" d="M158.573 382.223c0-0.743-0.040-1.568-0.122-2.312l-0.327-90.194c0-13.333-10.693-24.189-23.919-24.189v-0.083h-51.347c-22.816 0-43.551 9.412-58.531 24.602-0.489 0.495-1.020 1.032-1.429 1.568-14.164 15.108-22.898 35.417-22.898 57.584v186.333c0 23.034 9.306 43.919 24.326 59.112l0.082 0.083-0.082 0.083c15.020 15.19 35.756 24.602 58.531 24.602h36.653c16.571 77.687 55.266 147.245 108.983 201.603 72.775 73.599 173.182 119.295 283.67 119.295 110.446 0 210.904-45.695 283.67-119.295 53.755-54.364 92.409-123.922 108.983-201.603h36.327c22.816 0 43.551-9.412 58.531-24.602 15.020-15.19 24.326-36.161 24.326-59.235v-186.333c0-22.992-9.347-43.919-24.408-59.153l0.082-0.041c-15.020-15.19-35.756-24.602-58.531-24.602h-27.347v-32.735c0-57.46-23.225-109.678-60.653-147.53s-89.102-61.34-145.879-61.34h-61.388c-4.245-15.727-12.531-29.844-23.633-41.031-16.571-16.759-39.388-27.12-64.572-27.12h-143.224c-25.142 0-48.041 10.402-64.572 27.12-16.571 16.759-26.816 39.834-26.816 65.303s10.286 48.586 26.816 65.303c16.571 16.759 39.388 27.12 64.572 27.12h143.224c25.185 0 48.041-10.402 64.572-27.12 11.102-11.228 19.389-25.303 23.633-41.031h61.388c43.592 0 83.224 18.039 111.961 47.14 28.735 29.060 46.612 69.142 46.612 113.228v301.411c0 98.325-39.796 187.739-103.878 252.58-64.122 64.848-152.493 105.054-249.753 105.054-97.225 0-185.596-40.246-249.753-105.054-59.919-60.597-98.572-142.7-103.388-233.474l-0.489-142.87-0.005-28.177zM912.209 570.87c1.102-12.094 1.633-24.355 1.633-36.739v-220.138h27.347c9.551 0 18.286 4.004 24.613 10.361l0.082-0.041 0.082 0.041c6.286 6.357 10.163 15.149 10.163 24.891v186.333c0 9.659-3.96 18.492-10.286 24.891s-15.062 10.361-24.613 10.361h-28.979l-0.041 0.038zM110.695 380.204c-0.082 0.661-0.082 1.321-0.082 1.982v151.905c0 8.132 0.245 16.139 0.694 24.106l0.082 12.589h-28.45c-9.551 0-18.286-3.963-24.613-10.361l-0.082 0.083c-6.286-6.398-10.204-15.232-10.204-24.933v-186.333c0-9.246 3.511-17.667 9.265-23.9l1.020-0.99c6.327-6.398 15.062-10.361 24.613-10.361h27.511l0.204 66.211 0.041 0.003zM557.757 91.959h-143.224c-11.918 0-22.776-4.954-30.613-12.92-7.878-7.966-12.776-18.947-12.776-30.959 0-12.053 4.898-23.034 12.776-30.959 7.878-7.966 18.735-12.92 30.613-12.92h143.224c11.918 0 22.776 4.954 30.613 12.92 7.878 7.966 12.776 18.947 12.776 30.959 0 12.053-4.898 23.034-12.776 30.959-7.878 8.008-18.735 12.92-30.613 12.92z" />
<glyph unicode="&#xe95f;" glyph-name="twitter" d="M1023.998 765.566c-37.632-16.704-78.144-27.967-120.64-33.088 43.392 25.984 76.672 67.2 92.416 116.224-40.639-24.064-85.632-41.536-133.44-50.944-38.335 40.831-92.992 66.304-153.343 66.304-116.032 0-210.112-94.015-210.112-210.048 0-16.447 1.855-32.512 5.44-47.872-174.592 8.767-329.472 92.352-433.024 219.456-18.048-30.976-28.416-67.072-28.416-105.6 0-72.895 37.056-137.152 93.439-174.847-34.432 1.087-66.816 10.56-95.167 26.304v-2.688c0-101.76 72.448-186.688 168.448-205.951-17.536-4.864-36.096-7.423-55.296-7.423-13.567 0-26.688 1.344-39.487 3.775 26.688-83.455 104.32-144.192 196.159-145.855-71.872-56.383-162.367-89.92-260.863-89.92-16.896 0-33.6 0.96-50.112 2.88 92.992-59.584 203.392-94.336 322.048-94.336 386.431 0 597.76 320.128 597.76 597.696 0 9.151-0.192 18.175-0.64 27.199 41.088 29.632 76.735 66.624 104.832 108.736z" />
<glyph unicode="&#xe960;" glyph-name="unlock" d="M511.999 217.588c-41.221 0-74.679 34.381-74.679 76.815 0 42.4 33.457 76.781 74.679 76.781 41.253 0 74.679-34.381 74.679-76.781 0-42.433-33.425-76.815-74.679-76.815v0zM760.896 703.984c0 141.191-111.665 256.016-248.897 256.016s-248.865-114.827-248.865-256.016v-153.597h-124.464c-13.665 0-24.893-11.516-24.893-25.572v-179.235c0-226.221 178.324-409.58 398.223-409.58 219.931 0 398.223 183.359 398.223 409.58v179.235c0 14.056-11.228 25.572-24.893 25.572h-522.655v153.597c0 84.733 66.98 153.597 149.325 153.597s149.325-68.863 149.325-153.597h99.572z" />
<glyph unicode="&#xe961;" glyph-name="user" d="M989.684 86.272c-44.8 61.223-272.321 35.818-307.040 105.767-68.887 138.726-40.768 112.953 4.105 147.305 42.124 32.262 40.144 117.279 65.917 147.452 26.14 30.649 38.202 118.452 28.339 151.52-13.015 43.846-33.033 20.017-36.039 53.086-6.562 71.38 11.475 130.074-28.705 164.791-38.824 33.544-87.401 102.797-166.516 103.798-27.532 0.321-58.805-7.891-94.66-28.459-170.659 18.22-169.558-168.751-176.049-240.13-3.043-33.069-23.061-9.238-36.075-53.086-9.825-33.069 2.236-120.872 28.375-151.52 25.773-30.172 23.757-115.188 65.881-147.452 44.874-34.351 73.030-8.578 4.105-147.341-34.719-69.949-262.202-44.506-307.040-105.731-34.279-46.78-34.279-150.273-34.279-150.273h1023.991c0 0 0 103.495-34.315 150.273z" />
<glyph unicode="&#xe962;" glyph-name="video-camera" d="M768.016 503.731v119.428c0 13.739-11.549 25.027-25.605 25.027h-132.413l-153.596 150.13h-353.982v-100.109h311.581l51.21-50.022h-439.606c-14.089 0-25.605-11.288-25.605-25.027v-500.446c0-13.771 11.516-25.027 25.605-25.027h716.806c14.056 0 25.605 11.256 25.605 25.027v119.428l255.984-144.455v550.5l-255.984-144.455z" />
<glyph unicode="&#xe963;" glyph-name="vimeo" d="M0.001 651.602l41.538-54.529c0 0 85.826 67.586 114.435 33.857 28.544-33.857 137.668-441.995 174.149-517.261 31.745-66.114 119.492-153.412 215.686-91.010 96.194 62.337 415.818 335.305 473.1 657.617 57.153 322.249-384.778 254.791-431.5-25.985 116.996 70.274 179.333-28.544 119.555-140.356-59.778-111.682-114.307-184.581-142.916-184.581-28.544 0-50.562 74.754-83.203 205.445-33.857 135.044-33.665 378.442-174.213 350.858-132.483-26.048-306.632-234.054-306.632-234.054z" />
<glyph unicode="&#xe964;" glyph-name="volume-high" d="M512.154 959.999v-1023.999l-320.081 256h-64.024c-70.419 0-128.050 57.618-128.050 128.021v0 255.958c0 70.445 57.63 128.021 128.050 128.021v0h64.024l320.081 256zM874.252 810.056c199.664-199.619 199.664-524.456 0-724.116v0l-90.509 90.53c149.749 149.715 149.749 393.342 0 543.097v0zM674.517 674.303c124.749-124.803 124.749-327.805-0.042-452.609v0l-90.55 90.53c74.874 74.858 74.874 196.691 0 271.59v0z" />
<glyph unicode="&#xe965;" glyph-name="volume-low" d="M640.092 960v-1024l-320.068 256h-64.021c-70.416 0-128.002 57.618-128.002 128.020v0 255.958c0 70.444 57.586 128.020 128.002 128.020v0h64.021l320.068 256zM802.445 674.306c124.744-124.803 124.744-327.805-0.040-452.608v0l-90.505 90.529c74.83 74.857 74.83 196.692-0.040 271.59v0z" />
<glyph unicode="&#xe966;" glyph-name="volume-off" d="M455.663 899.765v-903.53l-283.587 225.882h-56.931c-62.657 0-115.145 50.839-115.145 112.96v0 225.846c0 62.157 52.489 112.96 115.145 112.96v0h56.931l283.587 225.882zM943.469 671.454l80.531-79.844-144.84-143.601 144.84-143.601-80.531-79.844-144.84 143.601-144.84-143.601-80.568 79.844 144.877 143.601-144.877 143.601 80.568 79.844 144.84-143.601 144.84 143.601z" />
<glyph unicode="&#xe967;" glyph-name="close-circle" d="M270.521 646.797c133.157 133.157 349.811 133.157 482.951 0.017s133.157-349.811 0-482.968c-133.14-133.14-349.811-133.122-482.951 0.017s-133.14 349.794 0 482.934zM324.175 593.143c-103.555-103.555-103.555-272.072 0-375.626s272.072-103.555 375.626 0c103.572 103.572 103.555 272.072 0 375.626s-272.054 103.572-375.626 0zM458.329 512.653l53.671-53.671 53.671 53.671 53.654-53.654-53.671-53.671 53.671-53.671-53.654-53.654-53.671 53.671-53.671-53.671-53.654 53.654 53.671 53.671-53.671 53.671 53.654 53.654z" />
<glyph unicode="&#xe968;" glyph-name="close" d="M853.333 735.709l-53.624 53.624-287.697-287.697-287.697 287.697-53.648-53.624 287.722-287.697-287.722-287.697 53.648-53.648 287.697 287.697 287.697-287.697 53.624 53.648-287.697 287.697z" />
<glyph unicode="&#xe969;" glyph-name="youtube" d="M406.272 315.169v287.743l276.671-144.384-276.671-143.359zM1013.758 652.704c0 0-9.984 70.528-40.704 101.632-38.911 40.831-82.56 41.023-102.592 43.392-143.296 10.368-358.271 10.368-358.271 10.368h-0.448c0 0-214.912 0-358.207-10.368-20.032-2.368-63.616-2.56-102.592-43.392-30.72-31.104-40.704-101.632-40.704-101.632s-10.24-82.879-10.24-165.696v-77.695c0-82.879 10.24-165.76 10.24-165.76s9.984-70.528 40.704-101.632c38.976-40.768 90.112-39.487 112.896-43.776 81.919-7.807 348.16-10.24 348.16-10.24s215.167 0.319 358.463 10.687c20.032 2.368 63.679 2.56 102.592 43.327 30.72 31.104 40.704 101.632 40.704 101.632s10.24 82.879 10.24 165.76v77.695c0 82.816-10.24 165.696-10.24 165.696v0z" />
<glyph unicode="&#xe96a;" glyph-name="youtube-logo" d="M836.928 471.776c103.296 0 187.072-83.839 187.072-187.135v0-150.4c0-103.231-83.776-187.072-187.072-187.072v0h-649.92c-103.296 0-187.008 83.839-187.008 187.072v0 150.4c0 103.296 83.712 187.135 187.008 187.135v0zM788.095 320.097c-23.232 0-42.048-7.104-56.704-21.184-14.719-14.143-22.015-32.575-22.015-54.976v0-116.416c0-25.024 6.784-44.608 20.032-58.752 13.312-14.335 31.615-21.376 54.784-21.376 25.792 0 45.247 6.655 58.111 19.968 13.12 13.504 19.584 33.6 19.584 60.16v0 13.312h-53.311v-11.839c0-15.232-1.792-25.024-5.119-29.568-3.456-4.48-9.472-6.72-18.048-6.72-8.256 0-14.143 2.623-17.599 7.872-3.328 5.311-5.056 14.784-5.056 28.416v0 48.832h99.136v66.112c0 24.576-6.4 43.392-19.135 56.512-12.672 13.056-30.912 19.648-54.655 19.648zM398.144 313.633h-51.84v-216.703c0-15.487 3.072-26.944 9.088-34.687 6.144-7.807 15.040-11.584 27.136-11.584 9.664 0 19.711 2.688 30.016 8.32 10.432 5.44 20.352 13.44 29.887 23.935v0-28.48h51.84v259.2h-51.84v-196.864c-4.864-5.632-10.176-10.24-16.063-13.951-5.824-3.648-10.687-5.376-14.4-5.376-4.8 0-8.383 1.279-10.624 4.159-2.112 2.688-3.199 7.104-3.199 13.248v0 198.784zM585.6 405.793h-52.416v-351.36h52.416v19.903c6.72-7.999 14.208-13.824 22.144-17.599 7.872-3.775 16.896-5.568 27.072-5.568 15.295 0 27.136 4.8 35.2 14.592 8.191 9.856 12.16 23.935 12.16 42.175v0 143.872c0 21.184-4.224 37.375-12.928 48.448-8.64 11.071-21.12 16.512-37.567 16.512-8.064 0-16-1.984-23.935-6.144-7.744-4.096-15.168-10.176-22.144-17.983v0 113.152zM323.583 405.793h-179.2v-51.072h60.352v-300.288h58.432v300.288h60.415v51.072zM607.257 275.635c6.912 0 12.352-2.239 16.128-6.72 3.712-4.543 5.44-11.136 5.44-19.968v0-133.824c0-8.32-1.536-14.143-4.416-17.856-3.007-3.712-7.68-5.568-14.016-5.568-4.416 0-8.512 1.024-12.48 2.815-4.032 1.792-8.128 5.056-12.352 9.151v0 161.536c3.583 3.583 7.039 6.271 10.687 7.936s7.296 2.496 11.008 2.496zM785.887 274.759c7.872 0 13.759-2.368 17.28-7.168 3.52-4.608 5.376-12.415 5.376-23.296v0-26.176h-45.76v26.176c0 10.879 1.728 18.688 5.376 23.296 3.583 4.8 9.472 7.168 17.728 7.168zM505.83 854.471c24.127 0 43.84-6.912 59.392-20.736 15.295-13.696 22.975-31.68 22.975-53.376v0-147.456c0-24.448-7.488-43.519-22.591-57.535-15.168-13.888-35.968-20.8-62.464-20.8-25.536 0-45.952 7.168-61.248 21.568-15.232 14.4-22.912 33.6-22.912 57.856v0 148.032c0 22.144 7.872 39.744 23.488 52.8 15.679 13.12 36.864 19.648 63.36 19.648zM693.733 847.232v-218.88c0-6.72 1.408-11.584 3.775-14.592 2.368-3.072 6.463-4.543 11.904-4.543 4.224 0 9.727 1.984 16.255 5.952 6.528 4.096 12.544 9.151 17.983 15.36v0 216.703h58.368v-285.504h-58.368v31.68c-10.687-11.647-21.888-20.608-33.6-26.623-11.584-6.016-22.848-9.216-33.792-9.216-13.567 0-23.616 4.351-30.528 12.928-6.784 8.383-10.24 21.12-10.24 38.143v0 238.591h58.24zM260.102 948.832l42.624-154.752h4.096l40.704 154.752h66.688l-76.48-226.495v-160.576h-65.599v153.343l-78.208 233.728h66.175zM502.95 804.998c-7.039 0-12.864-1.855-17.344-5.695-4.416-3.904-6.655-8.896-6.655-15.168v0-155.52c0-7.872 2.112-13.824 6.271-18.112 4.096-4.416 10.048-6.463 17.728-6.463 7.936 0 14.208 2.176 18.816 6.528 4.672 4.351 7.039 10.432 7.039 18.048v0 155.52c0 6.271-2.368 11.263-7.104 15.168-4.735 3.84-11.008 5.695-18.751 5.695z" />
<glyph unicode="&#xe96b;" glyph-name="rounded" d="M803.078 37.759h-582.154c-113.303 0-207.075 84.003-207.075 187.539v240.283c0 11.72 9.769 19.535 19.535 19.535s19.535-9.769 19.535-19.535v-240.283c0-82.049 74.233-148.469 168.004-148.469h582.154c91.817 0 168.004 66.422 168.004 148.469v236.376c0 11.72 9.769 19.535 19.535 19.535s19.535-9.769 19.535-19.535v-236.376c0-103.537-91.817-187.539-207.075-187.539zM512.002 309.301c-5.861 0-9.769 1.954-13.673 5.861l-136.746 134.792c-7.815 7.815-7.815 19.535 0 27.351s19.535 7.815 27.351 0l103.537-101.584v462.985c0 11.72 9.769 19.535 19.535 19.535s19.535-9.769 19.535-19.535v-461.034l103.537 101.584c7.815 7.815 19.535 7.815 27.351 0s7.815-19.535 0-27.351l-136.746-136.746c-3.909-3.909-7.815-5.861-13.673-5.861z" />
<glyph unicode="&#xe96c;" glyph-name="download" horiz-adv-x="819" d="M819.2 598.588h-234.057v361.412h-351.086v-361.412h-234.057l409.6-421.647 409.6 421.647zM0 56.471v-120.471h819.2v120.471h-819.2z" />
<glyph unicode="&#xe96d;" glyph-name="co2-cloud" horiz-adv-x="1126" d="M40.96 398.848c-12.288 0-20.48 10.24-20.48 20.48 0 133.12 108.544 241.664 241.664 241.664 12.288 0 20.48-10.24 20.48-20.48s-10.24-20.48-20.48-20.48c-110.592 0-198.656-90.112-198.656-200.704-2.048-10.24-10.24-20.48-22.528-20.48zM919.552 677.376c-12.288 0-20.48 10.24-20.48 20.48 0 79.872-51.2 145.408-116.736 145.408s-116.736-65.536-116.736-145.408c0-12.288-10.24-20.48-20.48-20.48s-20.48 10.24-20.48 20.48c0 102.4 71.68 186.368 157.696 186.368s157.696-83.968 157.696-186.368c2.048-12.288-8.192-20.48-20.48-20.48zM1040.384 398.848c-6.144 0-10.24 2.048-14.336 6.144-8.192 8.192-8.192 20.48 0 28.672 24.576 24.576 38.912 55.296 38.912 86.016 0 69.632-65.536 139.264-147.456 157.696-10.24 2.048-18.432 14.336-16.384 24.576s14.336 18.432 24.576 16.384c102.4-20.48 182.272-108.544 182.272-198.656 0-40.96-18.432-81.92-51.2-114.688-4.096-4.096-10.24-6.144-16.384-6.144zM260.096 622.080c-12.288 0-20.48 10.24-20.48 20.48 0 163.84 126.976 296.96 282.624 296.96 77.824 0 141.312-26.624 192.512-81.92 8.192-8.192 8.192-20.48 0-28.672s-20.48-8.192-28.672 0c-43.008 47.104-96.256 69.632-163.84 69.632-133.12 0-239.616-114.688-239.616-256 0-12.288-10.24-20.48-22.528-20.48zM274.432-43.52c-120.832 0-198.656 81.92-198.656 210.944s86.016 219.136 208.896 219.136c55.296 0 86.016-14.336 96.256-18.432 10.24-6.144 14.336-18.432 8.192-28.672s-18.432-14.336-28.672-8.192c-4.096 2.048-28.672 14.336-75.776 14.336-100.352 0-167.936-71.68-167.936-176.128s61.44-169.984 157.696-169.984c40.96 0 71.68 8.192 86.016 16.384 10.24 6.144 22.528 2.048 28.672-8.192s2.048-22.528-8.192-28.672c-20.48-12.288-57.344-22.528-106.496-22.528zM559.104-43.52c-94.208 0-153.6 81.92-155.648 212.992 0 131.072 63.488 217.088 161.792 217.088 96.256 0 155.648-77.824 155.648-210.944 0-139.264-59.392-219.136-161.792-219.136zM567.296 343.552c-73.728 0-120.832-67.584-120.832-174.080 2.048-108.544 43.008-172.032 112.64-172.032 104.448 0 120.832 110.592 120.832 178.176 0 63.488-14.336 167.936-112.64 167.936zM919.552-43.52h-155.648c-8.192 0-14.336 4.096-18.432 12.288-4.096 6.144-2.048 16.384 2.048 22.528l57.344 77.824c59.392 79.872 88.064 129.024 88.064 188.416 0 8.192-2.048 88.064-61.44 88.064-28.672 0-51.2-18.432-59.392-30.72-8.192-8.192-20.48-10.24-28.672-2.048s-10.24 20.48-2.048 28.672c24.576 28.672 57.344 45.056 92.16 45.056 71.68 0 102.4-65.536 102.4-129.024 0-77.824-40.96-139.264-96.256-212.992l-34.816-47.104h114.688c12.288 0 20.48-10.24 20.48-20.48s-8.192-20.48-20.48-20.48z" />
<glyph unicode="&#xe96e;" glyph-name="diagonal-arrows" d="M847.872 454.144c0 0 0 0 0 0-12.288 0-22.528 4.096-30.72 12.288-2.048 2.048-4.096 4.096-4.096 6.144l-55.296 139.264-139.264-139.264c-20.48-20.48-55.296-20.48-75.776 0l-6.144 6.144c-20.48 20.48-20.48 55.296 0 75.776l139.264 139.264-137.216 55.296c-2.048 2.048-4.096 2.048-6.144 4.096-16.384 16.384-16.384 45.056 0 61.44 2.048 2.048 6.144 4.096 8.192 6.144l411.648 118.784c2.048 0 4.096 0 6.144 0 22.528 0 45.056-16.384 45.056-45.056 0-24.576-83.968-301.056-118.784-417.792 0-4.096-2.048-6.144-6.144-8.192-8.192-8.192-18.432-14.336-30.72-14.336zM765.952 669.184c2.048 0 2.048 0 4.096 0 6.144-2.048 12.288-6.144 14.336-12.288l63.488-157.696c45.056 145.408 112.64 374.784 114.688 397.312 0 2.048 0 2.048 0 2.048s0 0-2.048 0l-397.312-114.688 157.696-63.488c6.144-2.048 10.24-8.192 12.288-14.336s0-14.336-6.144-18.432l-161.792-161.792c-4.096-4.096-4.096-12.288 0-16.384l6.144-6.144c4.096-4.096 12.288-4.096 16.384 0l161.792 161.792c4.096 2.048 10.24 4.096 16.384 4.096zM65.536-43.52c-22.528 0-45.056 16.384-45.056 45.056 0 24.576 83.968 301.056 118.784 417.792 0 4.096 2.048 6.144 6.144 8.192 8.192 8.192 18.432 12.288 30.72 12.288s22.528-4.096 30.72-12.288c2.048-2.048 4.096-4.096 4.096-6.144l55.296-137.216 139.264 139.264c20.48 20.48 55.296 20.48 75.776 0l6.144-6.144c10.24-10.24 16.384-22.528 16.384-36.864s-6.144-28.672-16.384-36.864l-139.264-141.312 137.216-55.296c2.048-2.048 4.096-2.048 6.144-4.096 8.192-8.192 12.288-18.432 12.288-30.72s-4.096-22.528-12.288-30.72c-2.048-2.048-6.144-4.096-8.192-6.144l-411.648-118.784c-2.048 0-4.096 0-6.144 0zM176.128 396.8c-45.056-145.408-112.64-374.784-114.688-395.264 0-2.048 0-2.048 0-2.048s0 0 2.048 0l397.312 114.688-157.696 63.488c-6.144 2.048-10.24 8.192-12.288 14.336s0 14.336 6.144 18.432l161.792 161.792c2.048 2.048 4.096 6.144 4.096 8.192s-2.048 6.144-4.096 8.192l-8.192 4.096c-4.096 4.096-12.288 4.096-16.384 0l-161.792-161.792c-4.096-4.096-12.288-6.144-18.432-6.144s-12.288 6.144-14.336 12.288l-63.488 159.744z" />
<glyph unicode="&#xe96f;" glyph-name="right-arrow" d="M512-43.8c-66.7 0-131.2 13-191.9 38.5-58.6 24.7-111.2 60.1-156.3 105.1-45.1 45.1-80.5 97.7-105.1 156.3-25.6 60.7-38.5 125.2-38.5 191.9s13 131.2 38.5 191.9c24.7 58.6 60.1 111.2 105.1 156.3 45.1 45.1 97.7 80.5 156.3 105.1 60.7 25.6 125.2 38.5 191.9 38.5s131.2-13 191.9-38.5c58.6-24.7 111.2-60.1 156.3-105.1 45.1-45.1 80.5-97.7 105.1-156.3 25.5-60.7 38.5-125.2 38.5-191.9s-13-131.2-38.5-191.9c-24.7-58.6-60.1-111.2-105.1-156.3-45.1-45.1-97.7-80.5-156.3-105.1-60.7-25.6-125.2-38.5-191.9-38.5zM512 898.3c-120.8 0-234-46.7-318.8-131.5s-131.5-198-131.5-318.8 46.7-234 131.5-318.8c84.8-84.8 198-131.5 318.8-131.5s234 46.7 318.8 131.5c84.8 84.8 131.5 198 131.5 318.8s-46.7 234-131.5 318.8c-84.8 84.8-198 131.5-318.8 131.5zM777.4 407.1c0.2 0.3 0.4 0.5 0.6 0.8s0.4 0.5 0.6 0.8c0.2 0.3 0.4 0.6 0.6 0.9s0.3 0.5 0.5 0.8c0.2 0.3 0.3 0.6 0.5 1 0.1 0.3 0.3 0.6 0.4 0.9s0.2 0.6 0.3 0.9c0.1 0.3 0.2 0.6 0.3 1 0.1 0.3 0.2 0.6 0.2 1 0.1 0.3 0.2 0.7 0.2 1 0.1 0.4 0.1 0.7 0.2 1.1 0 0.3 0.1 0.6 0.1 0.9 0.1 1.4 0.1 2.7 0 4.1 0 0.3-0.1 0.6-0.1 0.9-0.1 0.4-0.1 0.7-0.2 1.1-0.1 0.3-0.2 0.7-0.2 1-0.1 0.3-0.1 0.6-0.2 1-0.1 0.3-0.2 0.7-0.3 1s-0.2 0.6-0.3 0.9c-0.1 0.3-0.3 0.6-0.4 0.9-0.2 0.3-0.3 0.6-0.5 1-0.1 0.3-0.3 0.5-0.5 0.8s-0.4 0.6-0.6 0.9c-0.2 0.3-0.4 0.6-0.6 0.8-0.2 0.3-0.4 0.5-0.6 0.8-0.4 0.5-0.8 0.9-1.2 1.3-0.1 0.1-0.1 0.1-0.2 0.2l-166.2 166.3c-8.1 8.1-21.3 8.1-29.4 0s-8.1-21.3 0-29.4l130.8-130.8h-448.6c-11.5 0-20.8-9.3-20.8-20.8s9.3-20.8 20.8-20.8h448.6l-130.8-130.7c-8.1-8.1-8.1-21.3 0-29.4 4.1-4.1 9.4-6.1 14.7-6.1s10.6 2 14.7 6.1l166.2 166.2c0.1 0.1 0.1 0.1 0.2 0.2 0.4 0.5 0.8 1 1.2 1.4z" />
<glyph unicode="&#xe970;" glyph-name="closed-quote" horiz-adv-x="1280" d="M824.889-35.556c-8.533 0-19.911 5.689-25.6 14.222l-68.267 110.933c-5.689 5.689-5.689 14.222-2.844 22.756s8.533 14.222 14.222 17.067c164.978 85.333 201.956 230.4 207.644 324.267h-190.578c-17.067 0-28.444 14.222-28.444 28.444v420.978c0 17.067 14.222 28.444 28.444 28.444h463.644c17.067 0 28.444-14.222 28.444-28.444v-352.711c0-290.133-159.289-514.844-418.133-585.956-2.844 0-5.689 0-8.533 0zM796.444 92.444l42.667-68.267c219.022 71.111 355.556 270.222 355.556 526.222v324.267h-403.911v-361.244h193.422c17.067 0 28.444-14.222 28.444-28.444-2.844-170.667-79.644-310.044-216.178-392.533zM130.844-35.556c-8.533 0-19.911 5.689-22.756 14.222l-73.956 110.933c-5.689 5.689-8.533 14.222-5.689 22.756s8.533 14.222 14.222 17.067c159.289 79.644 204.8 213.333 210.489 324.267h-187.733c-17.067 0-28.444 14.222-28.444 28.444v420.978c0 17.067 14.222 28.444 28.444 28.444h457.956c17.067 0 28.444-14.222 28.444-28.444v-352.711c0-290.133-159.289-514.844-415.289-585.956-2.844 0-2.844 0-5.689 0zM99.556 92.444l42.667-65.422c219.022 68.267 352.711 267.378 352.711 523.378v324.267h-401.067v-361.244h190.578c17.067 0 28.444-14.222 28.444-28.444 0-173.511-76.8-310.044-213.333-392.533z" />
<glyph unicode="&#xe971;" glyph-name="dashboard" d="M675.84 591.36c-5.585 0-9.309 1.862-13.033 5.585s-5.585 9.309-5.585 14.895l26.065 204.8c0 3.724 1.862 7.447 5.585 11.171l106.124 106.124c5.585 5.585 13.033 7.447 18.618 3.724 7.447-1.862 11.171-9.309 13.033-14.895l16.756-145.222 145.222-16.756c7.447 0 13.033-5.585 14.895-13.033s0-14.895-3.724-18.618l-106.124-104.262c-3.724-3.724-7.447-5.585-11.171-5.585l-204.8-26.065c-1.862 0-1.862-1.862-1.862-1.862zM718.662 807.331l-22.342-175.011 175.011 22.342 74.473 74.473-121.018 14.895c-9.309 1.862-14.895 7.447-16.756 16.756l-14.895 121.018-74.473-74.473zM491.52 408.902c-5.585 0-9.309 1.862-13.033 5.585-7.447 7.447-7.447 18.618 0 26.065l182.458 182.458c7.447 7.447 18.618 7.447 26.065 0s7.447-18.618 0-26.065l-182.458-182.458c-3.724-3.724-7.447-5.585-13.033-5.585zM491.52-45.382c-260.655 0-472.902 212.247-472.902 472.902s212.247 472.902 472.902 472.902c40.96 0 83.782-5.585 124.742-16.756 9.309-1.862 16.756-13.033 13.033-22.342-1.862-9.309-13.033-16.756-22.342-13.033-39.098 11.171-76.335 16.756-115.433 16.756-240.175-1.862-435.665-197.353-435.665-437.527s195.491-435.665 435.665-435.665 435.665 195.491 435.665 435.665c0 39.098-5.585 76.335-16.756 115.433-1.862 9.309 3.724 20.48 13.033 22.342s20.48-3.724 22.342-13.033c11.171-42.822 16.756-83.782 16.756-124.742 1.862-260.655-210.385-472.902-471.040-472.902zM491.52 105.425c-176.873 0-322.095 145.222-322.095 322.095s145.222 322.095 322.095 322.095c27.927 0 57.716-3.724 85.644-11.171 9.309-1.862 16.756-13.033 13.033-22.342-1.862-9.309-13.033-16.756-22.342-13.033-26.065 7.447-50.269 11.171-74.473 11.171-156.393 0-284.858-126.604-284.858-284.858 0-156.393 126.604-284.858 284.858-284.858s282.996 126.604 282.996 282.996c0 22.342-3.724 46.545-11.171 74.473-1.862 9.309 3.724 20.48 13.033 22.342s20.48-3.724 22.342-13.033c9.309-31.651 13.033-59.578 13.033-85.644 0-175.011-145.222-320.233-322.095-320.233zM491.52 258.095c-93.091 0-171.287 76.335-171.287 171.287 0 93.091 76.335 171.287 171.287 171.287 11.171 0 18.618-9.309 18.618-18.618s-9.309-18.618-18.618-18.618c-72.611 0-132.189-59.578-132.189-132.189s59.578-132.189 132.189-132.189c72.611 0 132.189 59.578 132.189 132.189 0 11.171 9.309 18.618 18.618 18.618s18.618-9.309 18.618-18.618c1.862-96.815-74.473-173.149-169.425-173.149z" />
<glyph unicode="&#xe972;" glyph-name="headset" horiz-adv-x="1074" d="M726.79 522.927c-7.493 0-12.488 6.244-12.488 12.488 0 96.156-79.922 174.829-177.327 174.829s-177.327-78.673-177.327-174.829c0-7.493-6.244-12.488-12.488-12.488s-12.488 6.244-12.488 12.488c0 109.893 91.161 199.805 202.302 199.805s202.302-89.912 202.302-199.805c0-7.493-4.995-12.488-12.488-12.488zM564.449 160.78h-36.215c-27.473 0-48.702 22.478-48.702 48.702s22.478 48.702 48.702 48.702h36.215c27.473 0 48.702-22.478 48.702-48.702s-21.229-48.702-48.702-48.702zM528.234 233.21c-12.488 0-23.727-9.99-23.727-23.727s9.99-23.727 23.727-23.727h36.215c12.488 0 23.727 9.99 23.727 23.727s-9.99 23.727-23.727 23.727h-36.215zM776.741 329.366h-8.741c-7.493 0-12.488 6.244-12.488 12.488v152.351c0 7.493 6.244 12.488 12.488 12.488h8.741c29.971 0 53.698-23.727 53.698-53.698v-69.932c0-29.971-23.727-53.698-53.698-53.698zM780.488 481.717v-126.127c13.737 2.498 24.976 13.737 24.976 28.722v69.932c0 12.488-11.239 24.976-24.976 27.473zM305.951 330.615h-8.741c-29.971 0-53.698 23.727-53.698 53.698v69.932c0 29.971 23.727 53.698 53.698 53.698h8.741c7.493 0 12.488-6.244 12.488-12.488v-152.351c0-7.493-4.995-12.488-12.488-12.488zM293.463 482.966c-13.737-2.498-24.976-13.737-24.976-28.722v-69.932c0-13.737 11.239-26.224 24.976-28.722v127.376zM726.79 303.141h-3.746c0 0-1.249 0-1.249 0-18.732 2.498-33.717 18.732-33.717 38.712v152.351c0 21.229 17.483 38.712 38.712 38.712s38.712-17.483 38.712-38.712v-152.351c0-21.229-17.483-38.712-38.712-38.712zM724.293 328.117h2.498c7.493 0 13.737 4.995 13.737 13.737v152.351c0 7.493-4.995 13.737-13.737 13.737-6.244 0-13.737-4.995-13.737-13.737v-152.351c0-6.244 4.995-12.488 11.239-13.737zM350.907 303.141h-3.746c-21.229 0-38.712 17.483-38.712 38.712v152.351c-1.249 8.741 2.498 18.732 9.99 26.224s18.732 12.488 29.971 12.488c21.229 0 38.712-17.483 38.712-38.712v-152.351c0-18.732-13.737-34.966-32.468-38.712-2.498 0-2.498 0-3.746 0zM347.161 507.941c-3.746 0-8.741-1.249-11.239-4.995-2.498-2.498-2.498-4.995-2.498-7.493v-153.6c0-7.493 4.995-13.737 13.737-13.737h2.498c4.995 1.249 11.239 6.244 11.239 13.737v152.351c0 7.493-6.244 13.737-13.737 13.737zM619.395 196.995h-13.737c-7.493 0-12.488 6.244-12.488 12.488s6.244 12.488 12.488 12.488c34.966 0 71.18 12.488 91.161 39.961 11.239 14.985 17.483 34.966 17.483 54.946 0 0 0 0 0 0 0 7.493 6.244 12.488 12.488 12.488s12.488-6.244 12.488-12.488c0 0 0 0 0 0 0-27.473-7.493-49.951-21.229-67.434-21.229-32.468-57.444-52.449-98.654-52.449z" />
<glyph unicode="&#xe973;" glyph-name="calling" d="M974.223 460.098c-16.126 0-28.219 12.093-28.219 28.219 0 112.883-44.348 213.67-120.944 294.301-80.632 76.599-181.418 120.944-294.301 120.944-16.126 0-28.219 12.093-28.219 28.219s12.093 28.219 28.219 28.219c124.977 0 241.892-48.377 330.585-137.073s137.073-205.608 137.073-330.585c4.032-20.158-8.064-32.251-24.19-32.251zM768.614 460.098c-16.126 0-28.219 12.093-28.219 28.219 0 112.883-92.725 209.641-209.641 209.641-16.126 0-28.219 12.093-28.219 28.219s12.093 28.219 28.219 28.219c145.135 0 262.050-116.915 262.050-262.050 0-20.158-8.064-32.251-24.19-32.251zM724.269-63.999c-28.219 0-60.474 8.064-88.693 20.158-137.073 56.442-258.018 133.041-358.804 233.827s-177.386 221.734-233.827 358.804c-24.19 60.474-24.19 116.915 0 169.325 24.19 56.442 56.442 76.599 116.915 92.725 32.251 12.093 60.474 12.093 92.725 0 60.474-24.19 161.26-161.26 165.292-229.795s-48.377-104.819-68.535-116.915c-12.093-8.064-28.219-4.032-36.284 8.064s-4.032 28.219 8.064 36.284v0c24.19 16.126 48.377 36.284 44.348 72.567-4.032 48.377-88.693 169.325-129.009 185.45-16.126 8.064-36.284 8.064-56.442 0-52.409-16.126-68.535-28.219-84.661-64.503s-16.126-80.632 4.032-124.977c52.409-133.041 129.009-245.924 221.734-342.678 96.757-92.725 209.641-169.325 342.678-221.734 44.348-20.158 88.693-20.158 124.977-4.032s48.377 32.251 64.503 84.661c8.064 20.158 8.064 36.284 0 56.442-16.126 40.316-137.073 129.009-185.45 129.009-36.284 0-56.442-20.158-72.567-44.348l-48.377 20.158c16.126 20.158 48.377 72.567 116.915 68.535s209.641-104.819 229.795-165.292c12.093-28.219 12.093-60.474 0-88.693-20.158-56.442-40.316-88.693-92.725-116.915-20.158-12.093-48.377-16.126-76.599-16.126z" />
<glyph unicode="&#xe974;" glyph-name="cashflow" horiz-adv-x="1042" d="M805.076 117.848l-1.766 222.455 40.607-26.483c17.655 42.372 26.483 88.276 26.483 134.179 0 188.91-153.6 342.51-340.745 342.51-74.152 0-143.007-22.952-201.269-67.090l-15.89-12.359-81.214 132.414 14.124 8.828c82.979 58.262 181.848 90.041 284.248 90.041 132.414 0 256-51.2 349.572-144.772s144.772-218.924 144.772-351.338c0-81.214-17.655-157.131-54.731-227.752v0l61.793-37.076-225.986-63.559zM838.621 271.448l1.766-107.697 100.634 28.248-5.297 5.297-17.655 8.828 21.186 30.014c31.779 65.324 49.434 135.945 49.434 210.097 0 123.586-47.669 238.345-134.179 324.855-86.51 88.276-203.034 135.945-324.855 135.945-90.041 0-176.552-26.483-250.703-74.152l42.372-70.621c61.793 40.607 132.414 61.793 206.566 61.793 208.331 0 377.821-169.49 377.821-377.821 0-58.262-14.124-116.524-38.841-167.724l-8.828-17.655-19.421 10.593zM88.276 222.014l-5.297 10.593c-40.607 74.152-47.669 137.71-47.669 213.628 0 70.621 14.124 139.476 44.138 204.8l-65.324 44.138 231.283 84.745 14.124-218.924-44.138 17.655c-17.655-40.607-26.483-84.745-26.483-130.648 0-67.090 19.421-130.648 54.731-185.379l15.89-24.717-171.255-15.89zM91.807 684.579l31.779-21.186-7.062-14.124c-30.014-63.559-45.903-132.414-45.903-203.034 0-67.090 7.062-123.586 38.841-187.145l88.276 7.062c-30.014 54.731-45.903 116.524-45.903 180.083 0 56.497 12.359 111.228 35.31 160.662l7.062 15.89 22.952-8.828-5.297 114.759-120.055-44.138zM280.717 139.034l-26.483 26.483 44.138 44.138v252.469c0 86.51 63.559 158.897 146.538 171.255l-49.434 84.745h278.952l-49.434-86.51c81.214-14.124 143.007-86.51 143.007-171.255v-222.455h-35.31v224.221c0 75.917-61.793 137.71-137.71 137.71h-31.779l49.434 82.979h-153.6l49.434-81.214h-33.545c-75.917 0-137.71-61.793-137.71-137.71v-270.124l-56.497-54.731zM406.069 421.517h-35.31c0 42.372 15.89 81.214 42.372 109.462l26.483-24.717c-21.186-21.186-33.545-51.2-33.545-84.745zM451.972 518.621l-22.952 28.248c12.359 8.828 24.717 15.89 40.607 21.186l10.593-33.545c-10.593-5.297-19.421-10.593-28.248-15.89zM538.483 77.241h-127.117c-35.31 0-65.324 28.248-65.324 65.324 0 35.31 28.248 65.324 65.324 65.324h111.228c14.124 7.062 61.793 30.014 120.055 30.014 70.621 0 114.759-33.545 116.524-33.545l7.062-5.297v-45.903h-35.31v28.248c-12.359 7.062-44.138 22.952-88.276 22.952-60.028 0-105.931-28.248-105.931-28.248l-3.531-1.766h-121.821c-15.89 0-28.248-12.359-28.248-30.014 0-15.89 12.359-28.248 28.248-28.248h127.117v-38.841zM955.145-46.345h-559.669l-252.469 118.29c-17.655 8.828-30.014 22.952-37.076 40.607s-5.297 37.076 3.531 54.731c17.655 33.545 56.497 47.669 91.807 33.545l183.614-74.152-14.124-33.545-181.848 74.152c-17.655 7.062-37.076 0-45.903-15.89-3.531-8.828-5.297-17.655-1.766-26.483s8.828-15.89 17.655-19.421l245.407-116.524h517.297v120.055h35.31v-155.366zM732.69 188.469h35.31v-217.159h-35.31v217.159zM829.793 75.476c-15.89 0-28.248-12.359-28.248-30.014s12.359-28.248 28.248-28.248 28.248 12.359 28.248 28.248-12.359 30.014-28.248 30.014zM460.8 400.331h111.228v-35.31h-111.228v35.31zM591.448 278.51h-121.821l8.828 24.717c0 0 17.655 51.2 7.062 120.055v3.531c-8.828 30.014 7.062 61.793 37.076 70.621 14.124 5.297 30.014 3.531 44.138-3.531s22.952-19.421 28.248-33.545l-35.31-12.359c-1.766 5.297-5.297 8.828-10.593 12.359-5.297 1.766-10.593 3.531-15.89 1.766-10.593-3.531-17.655-15.89-12.359-26.483l1.766-7.062c7.062-49.434 1.766-90.041-3.531-114.759h72.386v-35.31z" />
<glyph unicode="&#xe975;" glyph-name="wifi" d="M160-42.667c-36.267 0-72.533 14.933-98.133 40.533s-40.533 61.867-40.533 98.133c0 36.267 14.933 72.533 40.533 98.133s61.867 40.533 98.133 40.533c36.267 0 72.533-14.933 98.133-40.533 0 0 0 0 0 0 25.6-25.6 40.533-61.867 40.533-98.133s-14.933-72.533-40.533-98.133c-25.6-25.6-61.867-40.533-98.133-40.533zM160 192c-25.6 0-49.067-10.667-68.267-27.733-17.067-17.067-27.733-42.667-27.733-68.267s10.667-49.067 27.733-68.267c17.067-17.067 42.667-27.733 68.267-27.733s49.067 10.667 68.267 27.733c17.067 17.067 27.733 42.667 27.733 68.267s-10.667 49.067-27.733 68.267c-19.2 17.067-42.667 27.733-68.267 27.733zM686.933-42.667h-187.733c-10.667 0-19.2 8.533-21.333 19.2 0 0 0 2.133 0 4.267 0 117.333-44.8 226.133-128 309.333s-192 128-309.333 128c-12.8 0-21.333 10.667-21.333 21.333v187.733c0 6.4 2.133 10.667 6.4 14.933s8.533 6.4 14.933 6.4v0c177.067 0 345.6-70.4 471.467-196.267s196.267-294.4 196.267-471.467c0-6.4-2.133-10.667-6.4-14.933-2.133-6.4-8.533-8.533-14.933-8.533zM520.533 0h145.067c-6.4 157.867-70.4 307.2-183.467 418.133-110.933 113.067-260.267 179.2-418.133 183.467v-142.933c119.467-6.4 232.533-55.467 317.867-140.8s134.4-196.267 138.667-317.867zM981.333-42.667h-179.2c-12.8 0-21.333 10.667-21.333 21.333-2.133 407.467-332.8 738.133-738.133 738.133-12.8 0-21.333 10.667-21.333 21.333v179.2c0 6.4 2.133 10.667 6.4 14.933s8.533 6.4 14.933 6.4v0c256 0 497.067-100.267 678.4-281.6s281.6-422.4 281.6-678.4c0-6.4-2.133-10.667-6.4-14.933s-8.533-6.4-14.933-6.4zM823.467 0h136.533c-6.4 236.8-100.267 458.667-268.8 627.2s-390.4 262.4-627.2 268.8v-136.533c413.867-10.667 746.667-345.6 759.467-759.467z" />
<glyph unicode="&#xe976;" glyph-name="recycle" d="M632.279-47.746c-4.876 0-8.127 1.625-11.378 4.876l-120.279 120.279c-6.502 6.502-6.502 16.254 0 22.756l120.279 120.279c4.876 4.876 11.378 6.502 17.879 3.251s9.752-8.127 9.752-14.629v-43.886h156.038l-52.013 97.524c-4.876 8.127-1.625 17.879 6.502 22.756l105.651 56.889c3.251 1.625 8.127 3.251 13.003 1.625s8.127-4.876 9.752-8.127l113.778-211.302c13.003-22.756 11.378-52.013-1.625-74.768s-39.010-37.384-65.016-37.384h-286.070v-43.886c0-6.502-3.251-13.003-9.752-14.629-3.251-1.625-4.876-1.625-6.502-1.625zM534.756 88.787l79.644-79.644v19.505c0 9.752 8.127 16.254 16.254 16.254h299.073c14.629 0 29.257 8.127 37.384 21.13s8.127 29.257 1.625 42.26c0 0 0 0 0 0l-105.651 196.673-76.394-40.635 58.514-107.276c3.251-4.876 3.251-11.378 0-16.254s-8.127-8.127-14.629-8.127h-198.298c-9.752 0-16.254 8.127-16.254 16.254v19.505l-81.27-79.644zM451.86 12.394h-359.213c-26.006 0-52.013 14.629-65.016 37.384s-14.629 52.013-1.625 74.768l178.794 331.581-42.26 24.381c-6.502 3.251-9.752 9.752-8.127 16.254s4.876 11.378 11.378 13.003l164.165 43.886c4.876 1.625 8.127 0 13.003-1.625 3.251-1.625 6.502-6.502 8.127-9.752l43.886-164.165c1.625-6.502 0-13.003-6.502-17.879-4.876-3.251-13.003-4.876-17.879-1.625l-34.133 19.505-115.403-214.552h232.432c9.752 0 16.254-8.127 16.254-16.254v-120.279c-1.625-8.127-8.127-14.629-17.879-14.629zM212.927 490.26l21.13-11.378c8.127-4.876 9.752-14.629 6.502-22.756l-186.921-346.21c-8.127-13.003-6.502-29.257 1.625-42.26s22.756-21.13 37.384-21.13h342.959v87.771h-242.184c-6.502 0-11.378 3.251-14.629 8.127s-3.251 11.378 0 16.254l136.533 255.187c1.625 3.251 6.502 6.502 9.752 8.127 4.876 1.625 8.127 0 13.003-1.625l14.629-8.127-29.257 110.527-110.527-32.508zM788.317 335.848c-1.625 0-3.251 0-4.876 0l-164.165 43.886c-6.502 1.625-11.378 6.502-11.378 13.003-1.625 6.502 1.625 13.003 8.127 16.254l42.26 24.381-146.286 273.067-79.644-147.911c-1.625-3.251-4.876-6.502-9.752-8.127s-8.127 0-13.003 1.625l-105.651 56.889c-8.127 4.876-11.378 14.629-6.502 22.756l146.286 273.067c13.003 24.381 39.010 39.010 68.267 39.010 0 0 0 0 0 0 29.257 0 55.263-14.629 66.641-37.384l211.302-393.346 34.133 19.505c6.502 3.251 13.003 3.251 17.879-1.625 4.876-3.251 8.127-11.378 6.502-17.879l-43.886-164.165c-1.625-4.876-3.251-8.127-8.127-9.752-1.625-1.625-4.876-3.251-8.127-3.251zM668.038 402.489l108.902-29.257 29.257 110.527-13.003-8.127c-4.876-3.251-9.752-3.251-13.003-1.625-4.876 1.625-8.127 4.876-9.752 8.127l-219.429 407.975c-8.127 16.254-26.006 21.13-39.010 21.13 0 0 0 0 0 0-13.003 0-30.883-4.876-39.010-21.13l-139.784-258.438 76.394-40.635 86.146 160.914c3.251 4.876 8.127 8.127 14.629 8.127v0c6.502 0 11.378-3.251 14.629-8.127l169.041-313.702c4.876-8.127 1.625-17.879-6.502-22.756l-19.505-13.003z" />
</font>
</defs>
</svg>
